<?xml version="1.0" standalone="no"?>
<!DOCTYPE svg PUBLIC "-//W3C//DTD SVG 1.1//EN" "http://www.w3.org/Graphics/SVG/1.1/DTD/svg11.dtd" >
<svg>
<metadata>
Created by FontForge 20090622 at Wed Sep 27 16:00:07 2017
 By deploy user
Copyright (c) 1990 Adobe Systems Incorporated.  All Rights Reserved.Helvetica is a trademark of Linotype AG and/or its subsidiaries.
</metadata>
<defs>
<font id="HelveticaRounded-BoldCond" horiz-adv-x="240" >
  <font-face 
    font-family="Helvetica Rounded Condensed"
    font-weight="700"
    font-stretch="condensed"
    units-per-em="1000"
    panose-1="0 0 0 0 0 0 0 0 0 0"
    ascent="800"
    descent="-200"
    x-height="541"
    cap-height="733"
    bbox="-110 -216 990 965"
    underline-thickness="50"
    underline-position="-75"
    unicode-range="U+0020-U+FB02"
  />
<missing-glyph 
 />
    <glyph glyph-name=".notdef" 
 />
    <glyph glyph-name=".null" horiz-adv-x="0" 
 />
    <glyph glyph-name="nonmarkingreturn" horiz-adv-x="333" 
 />
    <glyph glyph-name="space" unicode=" " 
 />
    <glyph glyph-name="exclam" unicode="!" horiz-adv-x="278" 
d="M72 509v154q0 70 67 70t67 -70v-154q0 -29 -4 -70l-19 -212q-2 -29 -11 -41t-33 -12t-33 12t-11 41l-19 212q-4 41 -4 70zM63 63q0 31 22.5 53.5t53.5 22.5t53.5 -22.5t22.5 -53.5t-22.5 -53.5t-53.5 -22.5t-53.5 22.5t-22.5 53.5z" />
    <glyph glyph-name="quotedbl" unicode="&#x22;" horiz-adv-x="426" 
d="M254 523v151q0 27 16.5 45t40.5 18t40.5 -18t16.5 -45v-151q0 -27 -16.5 -45t-40.5 -18t-40.5 18t-16.5 45zM58 523v151q0 27 16.5 45t40.5 18t40.5 -18t16.5 -45v-151q0 -27 -16.5 -45t-40.5 -18t-40.5 18t-16.5 45z" />
    <glyph glyph-name="numbersign" unicode="#" horiz-adv-x="480" 
d="M262 197h-86l-21 -157q-5 -53 -54 -53q-17 0 -29 12.5t-12 29.5q0 5 4 33l19 135h-39q-22 0 -33 14t-11 34t11 34t33 14h51l16 121h-39q-22 0 -33 14t-11 34t11 34t33 14h51l20 157q7 53 54 53q18 0 30 -12.5t12 -29.5q0 -5 -4 -33l-18 -135h86l21 157q5 53 54 53
q17 0 29 -12.5t12 -29.5q0 -5 -4 -33l-19 -135h39q22 0 33.5 -14.5t11.5 -33.5t-11.5 -33.5t-33.5 -14.5h-51l-16 -121h39q22 0 33 -14t11 -34t-11 -34t-33 -14h-51l-20 -157q-7 -53 -54 -53q-18 0 -30 12.5t-12 29.5q0 5 4 33zM275 293l15 121h-86l-15 -121h86z" />
    <glyph glyph-name="dollar" unicode="$" horiz-adv-x="480" 
d="M215 83v218l-64 41q-110 70 -110 190q0 81 46.5 133.5t127.5 54.5v26q0 27 23 27t23 -27v-26q70 0 118 -42t48 -109q0 -25 -15.5 -41.5t-39.5 -16.5q-29 0 -41 14.5t-18 44.5q-6 27 -20 40.5t-32 13.5v-197l58 -34q62 -36 94.5 -82t32.5 -113q0 -96 -48.5 -151.5
t-136.5 -59.5v-77q0 -26 -23 -26t-23 26v77q-78 0 -129.5 51t-51.5 127q0 29 14 48.5t41 19.5q52 0 59 -66q8 -78 67 -84zM215 452v172q-60 -10 -60 -79q0 -27 12 -45.5t48 -47.5zM261 277v-194q28 4 45.5 31t17.5 61q0 67 -63 102z" />
    <glyph glyph-name="percent" unicode="%" horiz-adv-x="870" 
d="M44 538q0 90 34.5 136t119.5 46t119.5 -46t34.5 -136t-34.5 -136t-119.5 -46t-119.5 46t-34.5 136zM145 560v-33q0 -95 53 -95t53 95v33q0 84 -53 84t-53 -84zM518 169q0 90 34.5 136t119.5 46t119.5 -46t34.5 -136t-34.5 -136t-119.5 -46t-119.5 46t-34.5 136zM619 191
v-33q0 -95 53 -95t53 95v33q0 84 -53 84t-53 -84zM247 22l303 697q12 26 43 26q17 0 26 -9.5t9 -21.5q0 -16 -6 -29l-303 -697q-12 -26 -43 -26q-17 0 -26 9.5t-9 21.5q0 15 6 29z" />
    <glyph glyph-name="ampersand" unicode="&#x26;" horiz-adv-x="630" 
d="M351 403l88 -151q11 29 22 95q4 28 16.5 39.5t36.5 11.5q53 0 53 -62q0 -37 -19 -95.5t-43 -99.5l28 -46q20 -33 20 -54q0 -26 -18.5 -42t-45.5 -16q-30 0 -52 34l-18 26q-59 -56 -152 -56q-95 0 -149.5 58t-54.5 152q0 139 137 228q-57 91 -57 145q0 69 46 109.5
t118 40.5q73 0 112.5 -39.5t39.5 -96.5q0 -52 -28 -99.5t-80 -81.5zM368 133l-113 196q-31 -23 -50.5 -55t-19.5 -62q0 -50 29 -84.5t69 -34.5q48 0 85 40zM270 540l27 -46l13 12q24 21 33.5 38t9.5 41q0 21 -13.5 35t-33.5 14q-21 0 -35 -12.5t-14 -31.5q0 -28 13 -50z" />
    <glyph glyph-name="quotesingle" unicode="'" horiz-adv-x="222" 
d="M54 523v151q0 27 16.5 45t40.5 18t40.5 -18t16.5 -45v-151q0 -27 -16.5 -45t-40.5 -18t-40.5 18t-16.5 45z" />
    <glyph glyph-name="parenleft" unicode="(" horiz-adv-x="296" 
d="M51 277q0 101 20.5 194.5t50 153t60 95t51.5 35.5q43 0 43 -44q0 -9 -15 -43.5l-33.5 -79t-33.5 -129t-15 -182.5t15 -182.5t33.5 -129l33.5 -79t15 -43.5q0 -44 -43 -44q-21 0 -51.5 35.5t-60 95t-50 153t-20.5 194.5z" />
    <glyph glyph-name="parenright" unicode=")" horiz-adv-x="296" 
d="M245 277q0 -101 -20.5 -194.5t-50 -153t-60 -95t-51.5 -35.5q-43 0 -43 44q0 9 15 43.5l33.5 79t33.5 129t15 182.5t-15 182.5t-33.5 129l-33.5 79t-15 43.5q0 44 43 44q21 0 51.5 -35.5t60 -95t50 -153t20.5 -194.5z" />
    <glyph glyph-name="asterisk" unicode="*" horiz-adv-x="370" 
d="M221 618l68 22q41 15 51 -20q11 -33 -30 -47l-68 -22l42 -58q26 -35 -3 -55q-28 -21 -54 14l-42 58l-42 -58q-26 -35 -54 -14q-29 20 -3 55l42 58l-68 23q-42 13 -30 46q10 34 52 20l68 -22v72q0 43 35 43t35 -43v-72h1z" />
    <glyph glyph-name="plus" unicode="+" horiz-adv-x="600" 
d="M247 336v160q0 31 15 50.5t38 19.5t38 -19.5t15 -50.5v-160h160q31 0 50.5 -15.5t19.5 -37.5t-19.5 -37.5t-50.5 -15.5h-160v-160q0 -31 -15 -50.5t-38 -19.5t-38 19.5t-15 50.5v160h-160q-31 0 -50.5 15.5t-19.5 37.5t19.5 37.5t50.5 15.5h160z" />
    <glyph glyph-name="comma" unicode="," 
d="M40 60q0 33 22.5 56t57.5 23q38 0 59 -29.5t21 -66.5q0 -75 -43.5 -128t-89.5 -53q-11 0 -19 8t-8 17q0 19 26 28q21 7 42.5 28t27.5 45q-9 -1 -21 -1q-37 0 -56 23.5t-19 49.5z" />
    <glyph glyph-name="hyphen" unicode="-" horiz-adv-x="333" 
d="M232 226h-131q-30 0 -46 16.5t-16 40.5t16 40.5t46 16.5h131q30 0 46 -16.5t16 -40.5t-16 -40.5t-46 -16.5z" />
    <glyph glyph-name="period" unicode="." 
d="M44 63q0 31 22 53.5t54 22.5t54 -22.5t22 -53.5t-22 -53.5t-54 -22.5t-54 22.5t-22 53.5z" />
    <glyph glyph-name="slash" unicode="/" horiz-adv-x="333" 
d="M3 54l229 639q7 19 22 31.5t34 12.5q20 0 34 -10t14 -26q0 -20 -6 -35l-229 -639q-17 -44 -56 -44q-20 0 -34 10t-14 26q0 20 6 35z" />
    <glyph glyph-name="zero" unicode="0" horiz-adv-x="480" 
d="M173 493v-279q0 -72 14 -101.5t53 -29.5t53 29.5t14 101.5v279q0 72 -14 101.5t-53 29.5t-53 -29.5t-14 -101.5zM39 232v242q0 40 3 70.5t14.5 65.5t32.5 57.5t59.5 37.5t91.5 15t91.5 -15t59.5 -37.5t32.5 -57.5t14.5 -65.5t3 -70.5v-242q0 -40 -3 -70t-14.5 -65
t-32.5 -57.5t-59.5 -37.5t-91.5 -15t-91.5 15t-59.5 37.5t-32.5 57.5t-14.5 65t-3 70z" />
    <glyph glyph-name="one" unicode="1" horiz-adv-x="333" 
d="M136 505h-93q-57 0 -57 41q0 38 42 45q56 9 85.5 28.5t48.5 55.5q18 34 28.5 42.5t36.5 8.5q18 0 30.5 -13.5t12.5 -40.5v-616q0 -31 -19.5 -50t-47.5 -19t-47.5 19t-19.5 50v449z" />
    <glyph glyph-name="two" unicode="2" horiz-adv-x="480" 
d="M372 0h-277q-59 0 -59 57q0 51 30 121t104 144l47 47q51 51 69 85t18 75q0 42 -17 66t-50 24q-36 0 -51.5 -24.5t-19.5 -73.5q-2 -28 -19 -42.5t-42 -14.5q-61 0 -61 74q0 82 50.5 132t137.5 50q100 0 153 -49t53 -144q0 -105 -88 -193l-83 -83q-75 -75 -92 -137h197
q36 0 54 -13t18 -44t-18 -44t-54 -13z" />
    <glyph glyph-name="three" unicode="3" horiz-adv-x="480" 
d="M33 170q0 37 15.5 58.5t45.5 21.5q63 0 67 -75q5 -92 74 -92q72 0 72 124q0 73 -19 97.5t-64 28.5q-40 4 -54 14.5t-14 32.5t12 31.5t50 16.5q43 8 59 31t16 81q0 84 -63 84q-53 0 -64 -67q-9 -61 -65 -61q-27 0 -42 17t-15 44q0 73 46.5 118t137.5 45q103 0 151 -50.5
t48 -134.5q0 -119 -82 -148q54 -20 75 -62.5t21 -116.5q0 -221 -208 -221q-60 0 -102.5 19.5t-62 50.5t-27.5 58.5t-8 54.5z" />
    <glyph glyph-name="four" unicode="4" horiz-adv-x="480" 
d="M255 250v289h-2l-133 -289h135zM255 60v84h-170q-73 0 -73 55q0 28 20 71l195 407q15 30 31 39.5t51 9.5t51.5 -17.5t16.5 -45.5v-413h23q22 0 38.5 -13t16.5 -40t-16.5 -40t-38.5 -13h-23v-84q0 -73 -61 -73t-61 73z" />
    <glyph glyph-name="five" unicode="5" horiz-adv-x="480" 
d="M168 593l-9 -145q38 38 107 38q82 0 128.5 -53t46.5 -183q0 -61 -8.5 -105t-30 -82t-63.5 -57t-104 -19q-61 0 -103 19.5t-60.5 50.5t-25.5 56.5t-7 50.5q0 34 15 56t47 22q62 0 66 -65q5 -94 68 -94q42 0 57 35t15 113q0 87 -18 123t-62 36q-21 0 -35.5 -11t-21.5 -24.5
t-23.5 -24.5t-41.5 -11q-28 0 -42 17.5t-14 41.5q0 5 2 33l13 246q2 50 44 50h243q36 0 54 -13t18 -44t-18 -44t-54 -13h-183z" />
    <glyph glyph-name="six" unicode="6" horiz-adv-x="480" 
d="M36 317v76q0 165 44.5 246t163.5 81q86 0 131.5 -34t45.5 -85q0 -26 -16 -42t-43 -16q-22 0 -33.5 8t-25.5 34q-15 25 -25 32t-31 7q-77 0 -77 -142v-41q41 40 105 40q169 0 169 -226q0 -58 -8.5 -102.5t-29.5 -84t-62 -60.5t-101 -21q-55 0 -93.5 16.5t-60.5 42.5
t-34 71.5t-15.5 89.5t-3.5 110zM170 233q0 -78 14.5 -114t55.5 -36t55.5 36t14.5 114q0 77 -14.5 112t-55.5 35t-55.5 -35t-14.5 -112z" />
    <glyph glyph-name="seven" unicode="7" horiz-adv-x="444" 
d="M302 587h-229q-30 0 -46.5 19.5t-16.5 39.5q0 22 16 41.5t47 19.5h307q33 0 48.5 -10.5t15.5 -39.5q0 -18 -39 -93q-50 -96 -94 -244t-55 -264q-7 -69 -73 -69q-61 0 -61 69q0 72 56 242.5t124 288.5z" />
    <glyph glyph-name="eight" unicode="8" horiz-adv-x="480" 
d="M169 237v-53q0 -101 71 -101t71 101v53q0 101 -71 101t-71 -101zM175 529q0 -95 65 -95t65 95t-65 95t-65 -95zM35 200q0 143 91 185q-79 40 -79 144q0 91 48.5 141t144.5 50t144.5 -50t48.5 -141q0 -104 -79 -144q91 -42 91 -185q0 -43 -8 -77t-28.5 -66.5t-63 -51
t-105.5 -18.5t-105.5 18.5t-63 51t-28.5 66.5t-8 77z" />
    <glyph glyph-name="nine" unicode="9" horiz-adv-x="480" 
d="M444 390v-76q0 -165 -44.5 -246t-163.5 -81q-86 0 -131.5 34t-45.5 85q0 26 16 42t43 16q22 0 33.5 -8t25.5 -34q15 -25 25 -32t31 -7q77 0 77 142v41q-41 -40 -105 -40q-169 0 -169 226q0 58 8.5 102.5t29.5 84t62 60.5t101 21q55 0 93.5 -16.5t60.5 -42.5t34 -71.5
t15.5 -89.5t3.5 -110zM170 474q0 -77 14.5 -112t55.5 -35t55.5 35t14.5 112q0 78 -14.5 114t-55.5 36t-55.5 -36t-14.5 -114z" />
    <glyph glyph-name="colon" unicode=":" 
d="M44 465q0 31 22 53.5t54 22.5t54 -22.5t22 -53.5t-22 -53.5t-54 -22.5t-54 22.5t-22 53.5zM44 63q0 31 22 53.5t54 22.5t54 -22.5t22 -53.5t-22 -53.5t-54 -22.5t-54 22.5t-22 53.5z" />
    <glyph glyph-name="semicolon" unicode=";" 
d="M40 60q0 33 22.5 56t57.5 23q38 0 59 -29.5t21 -66.5q0 -75 -43.5 -128t-89.5 -53q-11 0 -19 8t-8 17q0 19 26 28q21 7 42.5 28t27.5 45q-9 -1 -21 -1q-37 0 -56 23.5t-19 49.5zM44 465q0 31 22 53.5t54 22.5t54 -22.5t22 -53.5t-22 -53.5t-54 -22.5t-54 22.5t-22 53.5z
" />
    <glyph glyph-name="less" unicode="&#x3c;" horiz-adv-x="600" 
d="M467 39l-407 187q-37 18 -37 57t37 57l407 187q29 14 55 14q23 0 39 -12.5t16 -25.5q0 -39 -47 -59l-367 -161l367 -161q47 -20 47 -59q0 -13 -16 -25.5t-39 -12.5q-26 0 -55 14z" />
    <glyph glyph-name="equal" unicode="=" horiz-adv-x="600" 
d="M513 348h-426q-31 0 -50.5 15.5t-19.5 37.5t19.5 37.5t50.5 15.5h426q31 0 50.5 -15.5t19.5 -37.5t-19.5 -37.5t-50.5 -15.5zM513 112h-426q-31 0 -50.5 15.5t-19.5 37.5t19.5 37.5t50.5 15.5h426q31 0 50.5 -15.5t19.5 -37.5t-19.5 -37.5t-50.5 -15.5z" />
    <glyph glyph-name="greater" unicode="&#x3e;" horiz-adv-x="600" 
d="M70 122l367 161l-367 161q-47 20 -47 59q0 13 16 25.5t39 12.5q26 0 55 -14l407 -187q37 -18 37 -57t-37 -57l-407 -187q-29 -14 -55 -14q-23 0 -39 12.5t-16 25.5q0 39 47 59z" />
    <glyph glyph-name="question" unicode="?" horiz-adv-x="481" 
d="M201 385l36 41q57 65 57 129q0 34 -16 55.5t-46 21.5q-23 0 -39 -15t-20 -40q-4 -37 -18.5 -51.5t-43.5 -14.5q-27 0 -43.5 16.5t-16.5 44.5q0 71 47.5 116t128.5 45q195 0 195 -187q0 -48 -18 -87t-57 -82l-29 -32q-34 -37 -45.5 -59.5t-15.5 -59.5q-2 -23 -16.5 -37.5
t-40.5 -14.5q-25 0 -41 17t-16 46q0 81 58 148zM124 63q0 31 22 53.5t54 22.5t54 -22.5t22 -53.5t-22 -53.5t-54 -22.5t-54 22.5t-22 53.5z" />
    <glyph glyph-name="at" unicode="@" horiz-adv-x="800" 
d="M310 337q0 -84 69 -84q51 0 80.5 31t29.5 77q0 36 -20 58t-58 22q-43 0 -72 -31t-29 -73zM614 475l-34 -166q-5 -30 -5 -45q0 -19 20 -19q35 0 63 39t28 115q0 119 -74 183t-198 64q-115 0 -196 -83.5t-81 -203.5q0 -132 80.5 -208.5t205.5 -76.5q68 0 115 16t70 31.5
t34 15.5q17 0 28.5 -10t11.5 -26q0 -19 -34.5 -46t-97 -49.5t-127.5 -22.5q-167 0 -283.5 106.5t-116.5 269.5q0 161 115 269.5t279 108.5q152 0 256 -85t104 -225q0 -64 -20 -115.5t-49.5 -81.5t-65.5 -49.5t-64 -26.5t-50 -7q-61 0 -70 43h-2q-40 -43 -112 -43
q-62 0 -105 48.5t-43 138.5q0 85 61 153t139 68q44 0 72 -15t54 -48l4 18q8 37 46 37q20 0 33 -11.5t13 -32.5q0 -9 -4 -28z" />
    <glyph glyph-name="A" unicode="A" horiz-adv-x="519" 
d="M338 180h-165l-27 -130q-7 -34 -22.5 -48.5t-47.5 -14.5q-30 0 -46.5 15.5t-16.5 42.5q0 23 8 55l128 539q13 56 34 75t76 19q51 0 74 -19.5t36 -74.5l127 -535q10 -44 10 -55q0 -31 -19 -46.5t-47 -15.5q-37 0 -54 18.5t-27 68.5zM195 286h122l-59 299h-2z" />
    <glyph glyph-name="B" unicode="B" horiz-adv-x="519" 
d="M56 72v576q0 72 72 72h180q159 0 159 -186q0 -54 -20 -94.5t-55 -53.5q95 -35 95 -163q0 -97 -44.5 -160t-141.5 -63h-173q-72 0 -72 72zM190 326v-225h80q77 0 77 119q0 106 -79 106h-78zM190 619v-192h61q82 0 82 99q0 93 -72 93h-71z" />
    <glyph glyph-name="C" unicode="C" horiz-adv-x="500" 
d="M40 296v114q0 185 53 256t178 71q96 0 149 -51t53 -129q0 -80 -68 -80q-38 0 -52 17t-20 64q-10 73 -62 73q-34 0 -51.5 -15t-28.5 -68.5t-11 -158.5v-40q0 -50 0.5 -79.5t3.5 -63.5t8.5 -52t15 -35t24 -23.5t35.5 -6.5q26 0 46 21.5t21 51.5q3 63 17 86.5t55 23.5
q68 0 68 -79q0 -108 -57.5 -159t-160.5 -51q-44 0 -78 10.5t-56.5 26.5t-38.5 43t-24 50.5t-12.5 60t-5.5 60.5t-1 62z" />
    <glyph glyph-name="D" unicode="D" horiz-adv-x="537" 
d="M190 614v-508h62q56 0 80.5 49t24.5 182v58q0 123 -20.5 171t-80.5 48h-66zM56 72v576q0 72 72 72h175q103 0 148.5 -75t45.5 -240v-93q0 -312 -200 -312h-169q-72 0 -72 72z" />
    <glyph glyph-name="E" unicode="E" horiz-adv-x="500" 
d="M190 314v-194h206q70 0 70 -60t-70 -60h-268q-72 0 -72 72v576q0 72 72 72h261q70 0 70 -60t-70 -60h-199v-166h186q70 0 70 -60t-70 -60h-186z" />
    <glyph glyph-name="F" unicode="F" horiz-adv-x="480" 
d="M190 314v-258q0 -31 -19.5 -50t-47.5 -19t-47.5 19t-19.5 50v592q0 72 72 72h248q70 0 70 -60t-70 -60h-186v-166h186q70 0 70 -60t-70 -60h-186z" />
    <glyph glyph-name="G" unicode="G" horiz-adv-x="519" 
d="M473 328v-286q0 -55 -52 -55q-26 0 -39.5 16.5t-13.5 42.5v19h-2q-44 -78 -134 -78q-46 0 -80.5 16.5t-55.5 45.5t-34 74t-17.5 94.5t-4.5 115.5v73q0 182 52.5 256.5t176.5 74.5q100 0 152 -52.5t52 -122.5q0 -80 -67 -80q-34 0 -48 19t-19 67q-6 63 -76 63
q-41 0 -62 -40t-21 -155v-100q0 -137 17.5 -190t71.5 -53q42 0 59 37.5t17 108.5v41h-55q-27 0 -40.5 16t-13.5 41q0 57 58 57h112q36 0 51.5 -16t15.5 -50z" />
    <glyph glyph-name="H" unicode="H" horiz-adv-x="556" 
d="M366 328h-176v-272q0 -31 -19.5 -50t-47.5 -19t-47.5 19t-19.5 50v608q0 31 19.5 50t47.5 19t47.5 -19t19.5 -50v-230h176v230q0 31 19.5 50t47.5 19t47.5 -19t19.5 -50v-608q0 -31 -19.5 -50t-47.5 -19t-47.5 19t-19.5 50v272z" />
    <glyph glyph-name="I" unicode="I" horiz-adv-x="258" 
d="M62 56v608q0 31 19.5 50t47.5 19t47.5 -19t19.5 -50v-608q0 -31 -19.5 -50t-47.5 -19t-47.5 19t-19.5 50z" />
    <glyph glyph-name="J" unicode="J" horiz-adv-x="444" 
d="M254 163v501q0 31 19.5 50t47.5 19t47.5 -19t19.5 -50v-504q0 -177 -186 -177q-178 0 -178 187q0 42 18.5 63t47.5 21q37 0 52.5 -23t15.5 -71q0 -71 46 -71q26 0 38 17t12 57z" />
    <glyph glyph-name="K" unicode="K" horiz-adv-x="519" 
d="M56 56v608q0 31 19.5 50t47.5 19t47.5 -19t19.5 -50v-264h2l160 291q13 24 27 33t35 9q28 0 47.5 -16.5t19.5 -41.5q0 -23 -18 -52l-131 -211l156 -321q14 -28 14 -46q0 -25 -19 -41.5t-52 -16.5q-29 0 -43.5 12t-28.5 42l-114 239l-55 -83v-141q0 -31 -19.5 -50
t-47.5 -19t-47.5 19t-19.5 50z" />
    <glyph glyph-name="L" unicode="L" horiz-adv-x="481" 
d="M190 120h201q70 0 70 -60t-70 -60h-263q-72 0 -72 72v592q0 31 19.5 50t47.5 19t47.5 -19t19.5 -50v-544z" />
    <glyph glyph-name="M" unicode="M" horiz-adv-x="704" 
d="M58 56v578q0 52 23 75.5t85 23.5q52 0 79.5 -23.5t39.5 -83.5l66 -346h2l66 346q12 60 39.5 83.5t79.5 23.5q62 0 85 -23.5t23 -75.5v-578q0 -31 -19.5 -50t-47.5 -19t-47.5 19t-19.5 50v517h-2l-110 -542q-5 -21 -14.5 -32.5t-33.5 -11.5t-33.5 11.5t-14.5 32.5
l-110 542h-2v-517q0 -31 -19.5 -50t-47.5 -19t-47.5 19t-19.5 50z" />
    <glyph glyph-name="N" unicode="N" horiz-adv-x="574" 
d="M56 56v608q0 32 19.5 50.5t54.5 18.5q34 0 55 -13.5t38 -54.5l159 -394h2v393q0 31 19.5 50t47.5 19t47.5 -19t19.5 -50v-602q0 -35 -19.5 -55t-47.5 -20q-42 0 -63 13.5t-37 54.5l-159 400h-2v-399q0 -31 -19.5 -50t-47.5 -19t-47.5 19t-19.5 50z" />
    <glyph glyph-name="O" unicode="O" horiz-adv-x="520" 
d="M40 290v152q0 76 12.5 131.5t32 86.5t50 49t59 23t66.5 5t66.5 -5t59 -23t50 -49t32 -86.5t12.5 -131.5v-152q0 -79 -11.5 -136t-30 -89.5t-48 -51.5t-59.5 -24.5t-71 -5.5t-71 5.5t-59.5 24.5t-48 51.5t-30 89.5t-11.5 136zM180 442v-152q0 -86 9.5 -130.5t25 -57.5
t45.5 -13t45.5 13t25 57.5t9.5 130.5v152q0 111 -19 150t-61 39t-61 -39t-19 -150z" />
    <glyph glyph-name="P" unicode="P" horiz-adv-x="500" 
d="M56 56v592q0 72 72 72h167q182 0 182 -203q0 -91 -43.5 -151t-127.5 -60h-116v-250q0 -31 -19.5 -50t-47.5 -19t-47.5 19t-19.5 50zM190 619v-212h60q87 0 87 104q0 108 -80 108h-67z" />
    <glyph glyph-name="Q" unicode="Q" horiz-adv-x="520" 
d="M40 290v152q0 76 12.5 131.5t32 86.5t50 49t59 23t66.5 5t66.5 -5t59 -23t50 -49t32 -86.5t12.5 -131.5v-152q0 -147 -39 -219l38 -36q29 -28 29 -52q0 -17 -14 -30t-30 -13q-25 0 -61 36l-28 29q-40 -22 -115 -22q-41 0 -71 5.5t-59.5 24.5t-48 51.5t-30 89.5t-11.5 136
zM180 442v-152q0 -86 9.5 -130.5t25 -57.5t45.5 -13q15 0 27 4l-6 6q-18 18 -18 38t14 32.5t33 12.5q12 0 23 -11q7 41 7 119v152q0 111 -19 150t-61 39t-61 -39t-19 -150z" />
    <glyph glyph-name="R" unicode="R" horiz-adv-x="519" 
d="M56 56v592q0 72 72 72h184q85 0 123.5 -50.5t38.5 -134.5q0 -70 -20 -107t-67 -56q50 -18 66.5 -51.5t16.5 -101.5v-77q0 -20 4.5 -57t4.5 -55t-16.5 -30.5t-47.5 -12.5q-79 0 -82 68l-6 184q-3 75 -79 75h-58v-258q0 -31 -19.5 -50t-47.5 -19t-47.5 19t-19.5 50z
M190 619v-204h52q92 0 92 102q0 55 -19.5 78.5t-66.5 23.5h-58z" />
    <glyph glyph-name="S" unicode="S" horiz-adv-x="500" 
d="M261 280l-129 91q-50 36 -70.5 78t-20.5 100q0 91 60.5 139.5t151.5 48.5q53 0 93.5 -17.5t62.5 -45.5t32.5 -58t10.5 -60q0 -33 -18 -50.5t-48 -17.5q-38 0 -50.5 16.5t-17.5 59.5q-8 67 -72 67q-31 0 -51 -18.5t-20 -50.5q0 -30 13.5 -53.5t58.5 -53.5l99 -65
q60 -39 88.5 -85t28.5 -120q0 -95 -57.5 -148.5t-170.5 -53.5q-50 0 -88 17t-58 40t-32.5 52t-16 48.5t-3.5 33.5q0 91 68 91q32 0 47.5 -20t18.5 -67q2 -40 22 -64.5t58 -24.5t58 23.5t20 60.5q0 35 -15 57.5t-53 49.5z" />
    <glyph glyph-name="T" unicode="T" horiz-adv-x="520" 
d="M87 720h346q70 0 70 -60t-70 -60h-106v-544q0 -31 -19.5 -50t-47.5 -19t-47.5 19t-19.5 50v544h-106q-70 0 -70 60t70 60z" />
    <glyph glyph-name="U" unicode="U" horiz-adv-x="537" 
d="M51 191v473q0 31 19.5 50t47.5 19t47.5 -19t19.5 -50v-460q0 -115 84 -115q39 0 61 28.5t22 86.5v460q0 31 19.5 50t47.5 19t47.5 -19t19.5 -50v-473q0 -97 -55.5 -152.5t-161.5 -55.5t-162 55.5t-56 152.5z" />
    <glyph glyph-name="V" unicode="V" horiz-adv-x="500" 
d="M152 64l-124 553q-9 42 -9 51q0 26 19.5 45.5t49.5 19.5q31 0 46.5 -13.5t21.5 -45.5l102 -532h2l88 520q6 35 20.5 53t46.5 18q31 0 48.5 -16t17.5 -45q0 -17 -7 -54l-119 -559q-9 -44 -31.5 -58t-72.5 -14q-49 0 -69.5 18.5t-29.5 58.5z" />
    <glyph glyph-name="W" unicode="W" horiz-adv-x="759" 
d="M377 449l-67 -407q-6 -33 -24 -44t-62 -11q-45 0 -63.5 14t-24.5 45l-109 576q-7 40 -7 52q0 26 19 42.5t53 16.5q54 0 62 -56l82 -502h2l81 503q5 29 18 42t43 13t43 -13t18 -42l90 -503h2l72 498q9 60 69 60q65 0 65 -62q0 -18 -6 -48l-102 -563q-9 -48 -26 -60.5
t-69 -12.5t-67.5 14t-23.5 64l-66 384h-2z" />
    <glyph glyph-name="X" unicode="X" horiz-adv-x="500" 
d="M46 112l127 256l-125 253q-16 33 -16 52q0 26 20 43t49 17q26 0 43.5 -13.5t33.5 -51.5l71 -178l86 194q22 49 62 49q32 0 51 -16t19 -43q0 -20 -11 -42l-131 -264l138 -281q12 -26 12 -39q0 -25 -18.5 -43t-50.5 -18q-49 0 -70 50l-90 205l-93 -213q-18 -42 -62 -42
q-29 0 -47.5 16.5t-18.5 43.5q0 22 21 65z" />
    <glyph glyph-name="Y" unicode="Y" horiz-adv-x="481" 
d="M174 56v240l-146 329q-12 28 -12 47q0 30 19 45.5t47 15.5q31 0 44.5 -12.5t28.5 -50.5l86 -228l91 238q12 31 28 42t41 11q27 0 45.5 -16.5t18.5 -37.5q0 -19 -10 -41l-147 -335v-247q0 -31 -19.5 -50t-47.5 -19t-47.5 19t-19.5 50z" />
    <glyph glyph-name="Z" unicode="Z" horiz-adv-x="519" 
d="M317 600h-207q-70 0 -70 60t70 60h308q71 0 71 -59q0 -30 -25 -71l-273 -470h235q70 0 70 -60t-70 -60h-333q-33 0 -51.5 19.5t-18.5 43.5q0 23 22 61z" />
    <glyph glyph-name="bracketleft" unicode="[" horiz-adv-x="296" 
d="M69 -107v768q0 72 77 72h83q21 0 34.5 -13t13.5 -35t-13.5 -35t-34.5 -13h-38v-720h38q21 0 34.5 -13t13.5 -35t-13.5 -35t-34.5 -13h-83q-77 0 -77 72z" />
    <glyph glyph-name="backslash" unicode="\" horiz-adv-x="333" 
d="M232 27l-229 639q-6 15 -6 35q0 16 14 26t34 10q39 0 56 -44l229 -639q6 -15 6 -35q0 -16 -14 -26t-34 -10q-19 0 -34 12.5t-22 31.5z" />
    <glyph glyph-name="bracketright" unicode="]" horiz-adv-x="296" 
d="M105 -83v720h-38q-21 0 -34.5 13t-13.5 35t13.5 35t34.5 13h83q77 0 77 -72v-768q0 -72 -77 -72h-83q-21 0 -34.5 13t-13.5 35t13.5 35t34.5 13h38z" />
    <glyph glyph-name="asciicircum" unicode="^" horiz-adv-x="600" 
d="M80 397l154 280q23 43 66 43t66 -43l154 -280q13 -25 13 -44q0 -36 -47 -36q-43 0 -65 40l-121 223l-121 -223q-22 -40 -65 -40q-47 0 -47 36q0 19 13 44z" />
    <glyph glyph-name="underscore" unicode="_" horiz-adv-x="500" 
d="M500 -125h-500q-12 0 -12 25t12 25h500q12 0 12 -25t-12 -25z" />
    <glyph glyph-name="grave" unicode="`" 
d="M111 605l-79 73q-25 23 -25 46q0 19 13.5 31t30.5 12q23 0 39 -16l84 -85q15 -15 15 -33q0 -19 -11.5 -31.5t-30.5 -12.5q-18 0 -36 16z" />
    <glyph glyph-name="a" unicode="a" horiz-adv-x="444" 
d="M395 394v-278q0 -20 3.5 -47.5t3.5 -33.5q0 -48 -61 -48q-64 0 -64 69l-2 -1q-31 -68 -111 -68q-57 0 -91.5 36t-34.5 109q0 62 20 100t67 63l109 57q39 20 39 57q0 23 -12.5 38.5t-34.5 15.5q-30 0 -43 -15t-17 -49q-2 -18 -18 -28.5t-40 -10.5t-44 12.5t-20 37.5
q0 68 48 106t122 38q59 0 97 -12t55.5 -36t23 -49t5.5 -63zM273 184v96l-43 -30q-40 -28 -52 -48t-12 -55q0 -30 11.5 -47t31.5 -17q29 0 46.5 28.5t17.5 72.5z" />
    <glyph glyph-name="b" unicode="b" horiz-adv-x="463" 
d="M181 322v-102q0 -132 61 -132q31 0 41 33.5t10 108.5v71q0 89 -10.5 120.5t-41.5 31.5q-60 0 -60 -131zM59 60v600q0 73 61 73t61 -73v-169h2q34 63 108 63q40 0 66.5 -16.5t40 -48t18.5 -66t5 -80.5v-145q0 -46 -5 -80.5t-18.5 -66t-40 -48t-66.5 -16.5q-76 0 -108 63
h-2q0 -27 -17 -45t-44 -18q-61 0 -61 73z" />
    <glyph glyph-name="c" unicode="c" horiz-adv-x="426" 
d="M42 221v99q0 45 3 75t13.5 62.5t29 52t52.5 32t81 12.5q40 0 71 -11t49 -27t29.5 -37t15.5 -38.5t4 -34.5q0 -34 -16.5 -51.5t-43.5 -17.5q-32 0 -47 16t-15 53q0 25 -13 38.5t-33 13.5q-18 0 -29 -9t-15.5 -28.5t-6 -38.5t-1.5 -51v-120q0 -69 11.5 -98.5t40.5 -29.5
q45 0 46 55q2 50 16.5 69t45.5 19q27 0 43.5 -19t16.5 -52q0 -19 -3.5 -38.5t-14.5 -43.5t-29 -42.5t-49.5 -31t-72.5 -12.5q-47 0 -81 12.5t-52.5 32t-29 52t-13.5 62.5t-3 75z" />
    <glyph glyph-name="d" unicode="d" horiz-adv-x="463" 
d="M170 301v-71q0 -75 10 -108.5t41 -33.5q61 0 61 132v102q0 131 -60 131q-31 0 -41.5 -31.5t-10.5 -120.5zM42 198v145q0 46 5 80.5t18.5 66t40 48t66.5 16.5q74 0 108 -63h2v169q0 73 61 73t61 -73v-600q0 -73 -61 -73q-27 0 -44 18t-17 45h-2q-32 -63 -108 -63
q-40 0 -66.5 16.5t-40 48t-18.5 66t-5 80.5z" />
    <glyph glyph-name="e" unicode="e" horiz-adv-x="426" 
d="M166 340h106v45q0 73 -53 73t-53 -73v-45zM38 214v113q0 58 6 94.5t24.5 69.5t56.5 48t99 15q93 0 131.5 -51.5t38.5 -161.5q0 -44 -13 -65.5t-55 -21.5h-160v-55q0 -58 10.5 -87t44.5 -29q19 0 32.5 17t14.5 39q1 37 16.5 51t43.5 14q62 0 62 -60q0 -73 -45.5 -115
t-120.5 -42q-61 0 -99 15t-56.5 48t-24.5 69.5t-6 94.5z" />
    <glyph glyph-name="f" unicode="f" horiz-adv-x="259" 
d="M67 60v390h-13q-54 0 -54 45q0 46 54 46h13v72q0 67 31.5 93.5t102.5 26.5q61 0 61 -54q0 -41 -37 -42q-22 -1 -29 -11t-7 -35v-50h19q54 0 54 -46q0 -45 -54 -45h-19v-390q0 -73 -61 -73t-61 73z" />
    <glyph glyph-name="g" unicode="g" horiz-adv-x="463" 
d="M170 334v-86q0 -89 10.5 -120.5t41.5 -31.5q60 0 60 131v95q0 50 -10.5 81.5t-22 40.5t-25.5 9q-54 0 -54 -119zM42 211v140q0 203 130 203q36 0 67 -19.5t45 -53.5h2q0 73 60 73q27 0 42.5 -18.5t15.5 -54.5v-511q0 -91 -45.5 -134t-137.5 -43q-72 0 -116 25t-44 76
q0 25 17 39.5t44 14.5q39 0 54 -36q14 -33 42 -33q38 0 51 24.5t13 82.5v75h-2q-20 -36 -43.5 -48.5t-64.5 -12.5q-40 0 -66.5 16.5t-40 48t-18.5 66t-5 80.5z" />
    <glyph glyph-name="h" unicode="h" horiz-adv-x="463" 
d="M54 60v600q0 73 61 73t61 -73v-176h2q14 34 45.5 52t68.5 18q53 0 85 -33.5t32 -100.5v-360q0 -73 -61 -73t-61 73v331q0 29 -13 43t-34 14q-64 0 -64 -97v-291q0 -73 -61 -73t-61 73z" />
    <glyph glyph-name="i" unicode="i" 
d="M59 60v421q0 73 61 73t61 -73v-421q0 -73 -61 -73t-61 73zM50 667q0 29 20.5 49.5t49.5 20.5t49.5 -20.5t20.5 -49.5t-20.5 -49.5t-49.5 -20.5t-49.5 20.5t-20.5 49.5z" />
    <glyph glyph-name="j" unicode="j" 
d="M59 -64v545q0 73 61 73t61 -73v-572q0 -116 -124 -116q-57 0 -57 52q0 24 10 33.5t31 14.5q18 4 18 43zM50 667q0 29 20.5 49.5t49.5 20.5t49.5 -20.5t20.5 -49.5t-20.5 -49.5t-49.5 -20.5t-49.5 20.5t-20.5 49.5z" />
    <glyph glyph-name="k" unicode="k" horiz-adv-x="444" 
d="M54 60v600q0 73 61 73t61 -73v-323h2l106 166q32 51 66 51q22 0 41 -14t19 -38q0 -19 -16 -42l-92 -132l111 -256q7 -15 7 -35q0 -22 -17.5 -36t-42.5 -14q-46 0 -67 47l-78 184l-39 -50v-108q0 -73 -61 -73t-61 73z" />
    <glyph glyph-name="l" unicode="l" 
d="M59 60v600q0 73 61 73t61 -73v-600q0 -73 -61 -73t-61 73z" />
    <glyph glyph-name="m" unicode="m" horiz-adv-x="686" 
d="M636 420v-360q0 -73 -61 -73t-61 73v331q0 29 -13 43t-34 14q-63 0 -63 -97v-291q0 -73 -61 -73t-61 73v331q0 29 -13 43t-34 14q-63 0 -63 -97v-291q0 -73 -61 -73t-61 73v421q0 73 61 73t61 -70h2q14 34 45.5 52t68.5 18q41 0 66 -14t43 -47q27 33 55 47t67 14
q53 0 85 -33.5t32 -100.5z" />
    <glyph glyph-name="n" unicode="n" horiz-adv-x="463" 
d="M54 60v421q0 73 61 73t61 -70h2q14 34 45.5 52t68.5 18q53 0 85 -33.5t32 -100.5v-360q0 -73 -61 -73t-61 73v331q0 29 -13 43t-34 14q-64 0 -64 -97v-291q0 -73 -61 -73t-61 73z" />
    <glyph glyph-name="o" unicode="o" horiz-adv-x="444" 
d="M166 336v-129q0 -73 12.5 -98.5t43.5 -25.5t43.5 25.5t12.5 98.5v129q0 70 -13.5 96t-42.5 26t-42.5 -26t-13.5 -96zM38 197v147q0 97 41 153.5t143 56.5t143 -56.5t41 -153.5v-147q0 -97 -41 -153.5t-143 -56.5t-143 56.5t-41 153.5z" />
    <glyph glyph-name="p" unicode="p" horiz-adv-x="463" 
d="M181 322v-107q0 -132 61 -132q31 0 41 33.5t10 108.5v76q0 89 -10.5 120.5t-41.5 31.5q-60 0 -60 -131zM59 -134v615q0 73 61 73t61 -73h2q15 34 45 53.5t63 19.5q40 0 66.5 -16.5t40 -48t18.5 -66t5 -80.5v-145q0 -46 -5 -80.5t-18.5 -66t-40 -48t-66.5 -16.5
q-75 0 -108 61h-2v-182q0 -73 -61 -73t-61 73z" />
    <glyph glyph-name="q" unicode="q" horiz-adv-x="463" 
d="M282 215v107q0 131 -60 131q-31 0 -41.5 -31.5t-10.5 -120.5v-76q0 -75 10 -108.5t41 -33.5q61 0 61 132zM404 481v-615q0 -73 -61 -73t-61 73v182h-2q-33 -61 -108 -61q-40 0 -66.5 16.5t-40 48t-18.5 66t-5 80.5v145q0 46 5 80.5t18.5 66t40 48t66.5 16.5
q33 0 63 -19.5t45 -53.5h2q0 73 61 73t61 -73z" />
    <glyph glyph-name="r" unicode="r" horiz-adv-x="333" 
d="M54 60v428q0 66 57 66t57 -66v-51h2q31 117 91 117q26 0 43 -20t17 -59q0 -31 -18 -52t-58 -21q-30 0 -49.5 -19.5t-19.5 -54.5v-268q0 -73 -61 -73t-61 73z" />
    <glyph glyph-name="s" unicode="s" horiz-adv-x="407" 
d="M211 196l-93 69q-50 37 -66 67t-16 76q0 71 45.5 108.5t121.5 37.5q46 0 80 -14t51 -36t25 -43t8 -40q0 -60 -64 -60q-47 0 -50 47q-3 55 -53 55q-19 0 -30.5 -11.5t-11.5 -30.5q0 -32 27 -52l75 -57q64 -48 90 -81.5t26 -84.5q0 -77 -49.5 -118t-127.5 -41
q-89 0 -128.5 45.5t-39.5 103.5q0 32 16.5 46.5t41.5 14.5q33 0 47 -17.5t17 -57.5q4 -44 53 -44q48 0 48 50q0 20 -9 34.5t-34 33.5z" />
    <glyph glyph-name="t" unicode="t" horiz-adv-x="259" 
d="M67 94v356h-13q-54 0 -54 45q0 46 54 46h13v93q0 73 61 73t61 -73v-93h28q54 0 54 -46q0 -45 -54 -45h-28v-318q0 -19 6.5 -28t26.5 -10q45 -2 45 -43q0 -30 -18.5 -43.5t-58.5 -13.5q-65 0 -94 28.5t-29 71.5z" />
    <glyph glyph-name="u" unicode="u" horiz-adv-x="463" 
d="M54 121v360q0 73 61 73t61 -73v-331q0 -57 47 -57q64 0 64 97v291q0 73 61 73t61 -73v-421q0 -73 -61 -73t-61 70h-2q-14 -34 -45.5 -52t-68.5 -18q-53 0 -85 33.5t-32 100.5z" />
    <glyph glyph-name="v" unicode="v" horiz-adv-x="426" 
d="M123 64l-96 406q-5 20 -5 28q0 26 18.5 41t43.5 15q31 0 47 -15t22 -49l64 -355h2l61 355q6 32 20 48t44 16t45 -15.5t15 -36.5q0 -20 -6 -42l-98 -418q-7 -29 -25.5 -42t-60.5 -13q-46 0 -63.5 17t-27.5 60z" />
    <glyph glyph-name="w" unicode="w" horiz-adv-x="648" 
d="M112 69l-82 387q-4 17 -4 36q0 29 17 45.5t45 16.5q56 0 66 -72l50 -335h2l51 307q9 55 22.5 77.5t43.5 22.5q47 0 57 -56l68 -351h2l50 341q10 66 65 66q25 0 41 -16.5t16 -44.5q0 -13 -4 -32l-82 -398q-8 -41 -24.5 -58.5t-57.5 -17.5q-42 0 -60 21t-27 70l-43 225h-2
l-46 -249q-12 -67 -81 -67q-37 0 -55.5 19t-27.5 63z" />
    <glyph glyph-name="x" unicode="x" horiz-adv-x="407" 
d="M35 92l98 182l-86 161q-20 39 -20 62q0 27 18.5 42t43.5 15q26 0 38.5 -10t25.5 -39l53 -111l57 119q20 41 57 41q28 0 45 -16t17 -41q0 -19 -22 -60l-87 -158l94 -174q21 -40 21 -61q0 -24 -19 -40.5t-47 -16.5q-42 0 -59 39l-61 134l-67 -135q-19 -38 -51 -38
q-28 0 -46.5 15.5t-18.5 40.5q0 20 16 49z" />
    <glyph glyph-name="y" unicode="y" horiz-adv-x="426" 
d="M146 -44l-122 509q-5 27 -5 32q0 26 17.5 41.5t47.5 15.5q55 0 63 -47l71 -377h2l60 357q6 33 20.5 50t45.5 17q27 0 44 -14.5t17 -39.5q0 -11 -7 -39l-127 -535q-19 -81 -48 -107t-105 -26q-57 0 -57 53q0 21 10.5 32t37.5 14q14 1 20 2.5t12.5 9t6.5 22.5t-4 30z" />
    <glyph glyph-name="z" unicode="z" horiz-adv-x="426" 
d="M89 541h245q63 0 63 -42q0 -24 -22 -63l-193 -330h157q61 0 61 -52q0 -54 -61 -54h-254q-59 0 -59 51q0 24 17 54l193 330h-147q-61 0 -61 52q0 54 61 54z" />
    <glyph glyph-name="braceleft" unicode="{" horiz-adv-x="314" 
d="M87 -46v208q0 41 -11 54t-31 13t-30.5 14.5t-10.5 33.5t10.5 33.5t30.5 14.5q13 0 21 3.5t14.5 19t6.5 44.5v208q0 133 118 133h65q40 0 40 -48t-40 -48h-22q-39 0 -39 -59v-197q0 -33 -9.5 -54.5t-27.5 -31t-29.5 -12.5t-28.5 -5v-2q17 -2 28.5 -5t29.5 -12.5t27.5 -31
t9.5 -54.5v-197q0 -59 39 -59h22q40 0 40 -48t-40 -48h-65q-118 0 -118 133z" />
    <glyph glyph-name="bar" unicode="|" horiz-adv-x="222" 
d="M54 56v608q0 36 15.5 54.5t41.5 18.5t41.5 -18.5t15.5 -54.5v-608q0 -36 -15.5 -54.5t-41.5 -18.5t-41.5 18.5t-15.5 54.5z" />
    <glyph glyph-name="braceright" unicode="}" horiz-adv-x="314" 
d="M227 600v-208q0 -41 11 -54t31 -13t30.5 -14.5t10.5 -33.5t-10.5 -33.5t-30.5 -14.5q-13 0 -21 -3.5t-14.5 -19t-6.5 -44.5v-208q0 -133 -118 -133h-65q-40 0 -40 48t40 48h22q39 0 39 59v197q0 33 9.5 54.5t27.5 31t29.5 12.5t28.5 5v2q-17 2 -28.5 5t-29.5 12.5
t-27.5 31t-9.5 54.5v197q0 59 -39 59h-22q-40 0 -40 48t40 48h65q118 0 118 -133z" />
    <glyph glyph-name="asciitilde" unicode="~" horiz-adv-x="600" 
d="M41 253q0 42 39.5 76t101.5 34q51 0 124 -27q75 -27 99 -27q29 0 60.5 23.5t50.5 23.5q43 0 43 -43t-40.5 -76.5t-106.5 -33.5q-40 0 -119 27t-98 27q-29 0 -60.5 -24t-50.5 -24q-43 0 -43 44z" />
    <glyph glyph-name="exclamdown" unicode="&#xa1;" horiz-adv-x="278" 
d="M72 -122v154q0 29 4 70l19 212q2 29 11 41t33 12t33 -12t11 -41l19 -212q4 -41 4 -70v-154q0 -70 -67 -70t-67 70zM63 478q0 32 22.5 54t53.5 22t53.5 -22t22.5 -54t-22.5 -54t-53.5 -22t-53.5 22t-22.5 54z" />
    <glyph glyph-name="cent" unicode="&#xa2;" horiz-adv-x="480" 
d="M183 287v-88q0 -27 1 -38h2l75 296q-1 1 -6 1q-47 0 -59.5 -30t-12.5 -141zM61 221v99q0 45 3 75t13.5 63t30 52t54 31.5t83.5 12.5q26 0 40 -2l11 44q10 37 31 37q6 0 11.5 -5t5.5 -11q0 -10 -4 -23l-13 -50q97 -26 97 -146q0 -26 -13 -43t-40 -17q-31 0 -42 13.5
t-16 54.5q-3 23 -12 34l-88 -348q12 -9 36 -9q60 0 62 65q1 80 58 80q56 0 56 -70q0 -98 -48 -134.5t-137 -36.5q-31 0 -52 4l-19 -73q-7 -28 -27 -28q-18 0 -18 20q0 12 4 27l17 69q-51 23 -67.5 75.5t-16.5 139.5z" />
    <glyph glyph-name="sterling" unicode="&#xa3;" horiz-adv-x="480" 
d="M217 386h111q23 0 35 -13t12 -30t-12 -30t-35 -13h-81q8 -22 8 -42q0 -36 -24 -79t-70 -81l2 -2q41 15 78 15q29 0 61 -9t50 -9q17 0 37 6.5t34 6.5q20 0 33.5 -12.5t13.5 -35.5q0 -35 -35 -53t-85 -18q-32 0 -89.5 14t-82.5 14q-21 0 -54 -11q-28 -10 -48 -10
q-19 0 -30 16.5t-11 38.5q0 14 15.5 32t33.5 35t33.5 46.5t15.5 62.5q0 42 -10 75h-54q-23 0 -35 13t-12 30t12 30t35 13h16q-35 78 -35 137q0 89 60 143t152 54q93 0 143.5 -49.5t50.5 -120.5q0 -65 -66 -65q-30 0 -43.5 15.5t-18.5 48.5q-10 70 -71 70q-39 0 -59 -28
t-20 -68q0 -55 39 -137z" />
    <glyph glyph-name="currency" unicode="&#xa4;" horiz-adv-x="480" 
d="M16 200l23 20q-39 60 -39 133t39 133l-23 20q-14 13 -14 32t14.5 34t33.5 15q24 0 39 -16l18 -18q57 40 133 40q77 0 132 -40l18 18q16 16 39 16q19 0 33.5 -15t14.5 -34t-14 -32l-23 -20q40 -62 40 -133t-40 -133l23 -20q14 -13 14 -32t-14.5 -34t-33.5 -15
q-22 0 -39 16l-18 18q-55 -40 -132 -40q-76 0 -133 40l-18 -18q-16 -16 -39 -16q-19 0 -33.5 15t-14.5 34t14 32zM122 353q0 -60 31.5 -93t86.5 -33t86.5 33t31.5 93t-31.5 93t-86.5 33t-86.5 -33t-31.5 -93z" />
    <glyph glyph-name="yen" unicode="&#xa5;" horiz-adv-x="480" 
d="M176 216v64h-81q-49 0 -49 41q0 40 49 40h53l-119 266q-10 22 -10 40q0 22 17.5 37.5t46.5 15.5q23 0 36.5 -10.5t25.5 -42.5l95 -257l95 257q12 32 25.5 42.5t36.5 10.5q29 0 46.5 -15.5t17.5 -37.5q0 -18 -10 -40l-119 -266h65q49 0 49 -40q0 -41 -49 -41h-93v-64h93
q49 0 49 -40q0 -41 -49 -41h-93v-80q0 -30 -19 -49t-45 -19t-45 19t-19 49v80h-81q-49 0 -49 41q0 40 49 40h81z" />
    <glyph glyph-name="brokenbar" unicode="&#xa6;" horiz-adv-x="222" 
d="M54 56v167q0 36 15.5 54.5t41.5 18.5t41.5 -18.5t15.5 -54.5v-167q0 -36 -15.5 -54.5t-41.5 -18.5t-41.5 18.5t-15.5 54.5zM54 497v167q0 36 15.5 54.5t41.5 18.5t41.5 -18.5t15.5 -54.5v-167q0 -36 -15.5 -54.5t-41.5 -18.5t-41.5 18.5t-15.5 54.5z" />
    <glyph glyph-name="section" unicode="&#xa7;" horiz-adv-x="481" 
d="M227 74l-99 74q-94 73 -94 162q0 99 77 149q-44 45 -44 111t43 116.5t134 50.5q85 0 129.5 -39t44.5 -90q0 -25 -18 -41t-45 -16q-40 0 -56 47q-14 43 -51 43q-32 0 -45.5 -18.5t-13.5 -40.5q0 -40 60 -85l89 -68q60 -47 84.5 -85t24.5 -88q0 -89 -79 -142l12 -14
q39 -46 39 -104q0 -85 -52.5 -131t-135.5 -46q-90 0 -134.5 44.5t-44.5 94.5q0 60 62 60q44 0 56 -49q13 -54 67 -54q29 0 44.5 17.5t15.5 44.5q0 45 -70 97zM193 261l104 -82q36 24 36 56q0 21 -13.5 39.5t-48.5 45.5l-87 69q-36 -21 -36 -60q0 -33 45 -68z" />
    <glyph glyph-name="dieresis" unicode="&#xa8;" 
d="M-40 666q0 28 19.5 47.5t47.5 19.5t47.5 -19.5t19.5 -47.5t-19.5 -47.5t-47.5 -19.5t-47.5 19.5t-19.5 47.5zM146 666q0 28 19.5 47.5t47.5 19.5t47.5 -19.5t19.5 -47.5t-19.5 -47.5t-47.5 -19.5t-47.5 19.5t-19.5 47.5z" />
    <glyph glyph-name="copyright" unicode="&#xa9;" horiz-adv-x="800" 
d="M216 363q0 95 54 156.5t144 61.5q73 0 119.5 -39t46.5 -83q0 -21 -11 -35t-31 -14q-35 0 -53 43q-14 37 -72 37q-42 0 -66.5 -33.5t-24.5 -91.5q0 -57 25 -92.5t68 -35.5q23 0 42.5 11.5t28.5 27.5q23 45 56 45q19 0 30.5 -12t11.5 -32q0 -37 -48 -84t-120 -47
q-89 0 -144.5 62t-55.5 155zM23 360q0 156 110.5 266.5t266.5 110.5t266.5 -110.5t110.5 -266.5t-110.5 -266.5t-266.5 -110.5t-266.5 110.5t-110.5 266.5zM137 360q0 -120 74 -195.5t189 -75.5t189 75.5t74 195.5t-74 195.5t-189 75.5t-189 -75.5t-74 -195.5z" />
    <glyph glyph-name="ordfeminine" unicode="&#xaa;" horiz-adv-x="289" 
d="M273 624v-166q0 -12 2 -28.5t2 -20.5q0 -29 -39 -29q-30 0 -44 9.5t-13 32.5v-1h-2q-21 -41 -85 -41q-37 0 -59.5 21.5t-22.5 65.5q0 75 56 98l84 34q25 11 25 33q0 12 -8 21t-22 9q-20 0 -28.5 -9.5t-10.5 -29.5q-3 -23 -55 -23q-15 0 -28 7.5t-13 22.5q0 44 33.5 67
t92.5 23q84 0 109.5 -24t25.5 -72zM177 501v54l-27 -16q-26 -15 -34 -26.5t-8 -32.5q0 -36 28 -36q19 0 30 16t11 41z" />
    <glyph glyph-name="guillemotleft" unicode="&#xab;" horiz-adv-x="426" 
d="M293 283l73 -64q27 -24 27 -38q0 -21 -13 -32.5t-31 -11.5q-17 0 -31 14l-72 65q-36 32 -36 67t36 67l72 65q14 14 31 14q18 0 31 -11.5t13 -32.5q0 -14 -27 -38zM116 283l73 -64q27 -24 27 -38q0 -21 -13 -32.5t-31 -11.5q-17 0 -31 14l-72 65q-36 32 -36 67t36 67
l72 65q14 14 31 14q18 0 31 -11.5t13 -32.5q0 -14 -27 -38z" />
    <glyph glyph-name="logicalnot" unicode="&#xac;" horiz-adv-x="600" 
d="M583 397v-215q0 -31 -15.5 -50.5t-37.5 -19.5t-37.5 19.5t-15.5 50.5v166h-390q-31 0 -50.5 15.5t-19.5 37.5t19.5 37.5t50.5 15.5h426q31 0 50.5 -16t19.5 -41z" />
    <glyph glyph-name="registered" unicode="&#xae;" horiz-adv-x="800" 
d="M251 215v307q0 21 13.5 33t32.5 12h126q73 0 109.5 -27t36.5 -94q0 -51 -26 -81t-57 -33l69 -95q8 -10 8 -26q0 -18 -12 -30t-35 -12q-17 0 -27 7t-24 27l-93 129h-30v-117q0 -22 -13 -34t-32 -12t-32.5 12t-13.5 34zM342 497v-95h73q25 0 39 9.5t14 37.5q0 48 -53 48
h-73zM23 360q0 156 110.5 266.5t266.5 110.5t266.5 -110.5t110.5 -266.5t-110.5 -266.5t-266.5 -110.5t-266.5 110.5t-110.5 266.5zM137 360q0 -120 74 -195.5t189 -75.5t189 75.5t74 195.5t-74 195.5t-189 75.5t-189 -75.5t-74 -195.5z" />
    <glyph glyph-name="macron" unicode="&#xaf;" 
d="M1 707h238q49 0 49 -43t-49 -43h-238q-49 0 -49 43t49 43z" />
    <glyph glyph-name="degree" unicode="&#xb0;" horiz-adv-x="400" 
d="M57 577q0 60 41.5 101.5t101.5 41.5t101.5 -41.5t41.5 -101.5t-41.5 -101.5t-101.5 -41.5t-101.5 41.5t-41.5 101.5zM133 577q0 -28 19.5 -47.5t47.5 -19.5t47.5 19.5t19.5 47.5t-19.5 47.5t-47.5 19.5t-47.5 -19.5t-19.5 -47.5z" />
    <glyph glyph-name="plusminus" unicode="&#xb1;" horiz-adv-x="600" 
d="M247 417v79q0 31 15 50.5t38 19.5t38 -19.5t15 -50.5v-79h160q31 0 50.5 -15.5t19.5 -37.5t-19.5 -37.5t-50.5 -15.5h-160v-79q0 -31 -15 -50.5t-38 -19.5t-38 19.5t-15 50.5v79h-160q-31 0 -50.5 15.5t-19.5 37.5t19.5 37.5t50.5 15.5h160zM87 106h426q31 0 50.5 -15.5
t19.5 -37.5t-19.5 -37.5t-50.5 -15.5h-426q-31 0 -50.5 15.5t-19.5 37.5t19.5 37.5t50.5 15.5z" />
    <glyph glyph-name="twosuperior" unicode="&#xb2;" horiz-adv-x="312" 
d="M249 287h-194q-39 0 -39 34q0 76 88 159l30 28q33 30 45 50t12 42q0 21 -10.5 35.5t-27.5 14.5q-35 0 -40 -59q-3 -34 -46 -34q-45 0 -45 48q0 53 33.5 84t95.5 31q69 0 105 -28t36 -80q0 -64 -57 -117l-54 -49q-48 -44 -60 -83h128q24 0 35.5 -8t11.5 -30q0 -38 -47 -38
z" />
    <glyph glyph-name="threesuperior" unicode="&#xb3;" horiz-adv-x="316" 
d="M154 280q-43 0 -73 11.5t-44 30.5t-19.5 35.5t-5.5 32.5q0 48 46 48q47 0 50 -42q3 -52 48 -52q47 0 47 68q0 41 -12.5 55.5t-41.5 16.5q-26 2 -35.5 9t-9.5 22q0 16 8 22.5t33 10.5q27 5 37.5 18t10.5 44q0 46 -40 46q-35 0 -42 -37q-6 -33 -48 -33q-43 0 -43 36
q0 44 32 71t99 27q143 0 143 -111q0 -72 -56 -88v-2q37 -12 51.5 -37t14.5 -69q0 -133 -150 -133z" />
    <glyph glyph-name="acute" unicode="&#xb4;" 
d="M66 666l84 85q16 16 39 16q17 0 30.5 -12t13.5 -31q0 -23 -25 -46l-79 -73q-18 -16 -36 -16q-19 0 -30.5 12.5t-11.5 31.5q0 18 15 33z" />
    <glyph glyph-name="mu" unicode="&#xb5;" horiz-adv-x="463" 
d="M54 -134v615q0 73 61 73t61 -73v-331q0 -57 47 -57q64 0 64 97v291q0 73 61 73t61 -73v-421q0 -73 -61 -73t-61 70h-2q-12 -28 -36 -47q-28 -23 -55 -23q-13 0 -16 9h-2v-130q0 -73 -61 -73t-61 73z" />
    <glyph glyph-name="paragraph" unicode="&#xb6;" horiz-adv-x="481" 
d="M162 -104v475q-60 0 -101 46.5t-41 124.5q0 51 14.5 88t39 55.5t51 26.5t56.5 8h211q22 0 35.5 -16.5t13.5 -43.5v-764q0 -27 -13.5 -43.5t-36.5 -16.5q-24 0 -37.5 16.5t-13.5 43.5v733h-77v-733q0 -27 -13.5 -43.5t-37.5 -16.5q-23 0 -36.5 16.5t-13.5 43.5z" />
    <glyph glyph-name="periodcentered" unicode="&#xb7;" 
d="M44 305q0 31 22 53.5t54 22.5t54 -22.5t22 -53.5t-22 -53.5t-54 -22.5t-54 22.5t-22 53.5z" />
    <glyph glyph-name="cedilla" unicode="&#xb8;" 
d="M151 0l-36 -56h13q87 0 87 -70q0 -40 -34 -65t-84 -25q-33 0 -55.5 10.5t-22.5 27.5q0 11 6 18t14 7q9 0 26.5 -5.5t24.5 -5.5q18 0 31 9t13 27q0 13 -10 22.5t-24 9.5q-5 0 -16 -1.5t-15 -1.5q-8 0 -13.5 5t-5.5 11q0 7 11 23l38 60h52z" />
    <glyph glyph-name="onesuperior" unicode="&#xb9;" 
d="M102 580h-60q-37 0 -37 28q0 27 27 31q65 9 87 50q12 21 19.5 26t29.5 5q35 0 35 -33v-365q0 -19 -14 -30.5t-37 -11.5q-22 0 -36 11.5t-14 30.5v258z" />
    <glyph glyph-name="ordmasculine" unicode="&#xba;" horiz-adv-x="289" 
d="M181 518v63q0 44 -8 59.5t-29 15.5t-28.5 -15t-7.5 -60v-63q0 -44 7.5 -59t28.5 -15t29 15t8 59zM277 594v-88q0 -59 -29 -92.5t-104 -33.5t-103.5 33.5t-28.5 92.5v88q0 60 28.5 93t103.5 33t104 -33.5t29 -92.5z" />
    <glyph glyph-name="guillemotright" unicode="&#xbb;" horiz-adv-x="426" 
d="M133 283l-73 64q-27 24 -27 38q0 21 13 32.5t31 11.5q17 0 31 -14l72 -65q36 -32 36 -67t-36 -67l-72 -65q-14 -14 -31 -14q-18 0 -31 11.5t-13 32.5q0 14 27 38zM310 283l-73 64q-27 24 -27 38q0 21 13 32.5t31 11.5q17 0 31 -14l72 -65q36 -32 36 -67t-36 -67l-72 -65
q-14 -14 -31 -14q-18 0 -31 11.5t-13 32.5q0 14 27 38z" />
    <glyph glyph-name="onequarter" unicode="&#xbc;" horiz-adv-x="740" 
d="M582 144v171h-2l-86 -171h88zM582 31v37h-115q-27 0 -39 8.5t-12 30.5q0 23 13 48l130 248q13 24 60 24q54 0 54 -38v-245h15q36 0 36 -38t-36 -38h-15v-37q0 -44 -46 -44q-45 0 -45 44zM169 22l303 697q12 26 43 26q17 0 26 -9.5t9 -21.5q0 -16 -6 -29l-303 -697
q-12 -26 -43 -26q-17 0 -26 9.5t-9 21.5q0 15 6 29zM95 580h-60q-37 0 -37 28q0 27 27 31q65 9 87 50q12 21 19.5 26t29.5 5q35 0 35 -33v-365q0 -19 -14 -30.5t-37 -11.5q-22 0 -36 11.5t-14 30.5v258z" />
    <glyph glyph-name="onehalf" unicode="&#xbd;" horiz-adv-x="740" 
d="M165 22l303 697q12 26 43 26q17 0 26 -9.5t9 -21.5q0 -16 -6 -29l-303 -697q-12 -26 -43 -26q-17 0 -26 9.5t-9 21.5q0 15 6 29zM95 580h-60q-37 0 -37 28q0 27 27 31q65 9 87 50q12 21 19.5 26t29.5 5q35 0 35 -33v-365q0 -19 -14 -30.5t-37 -11.5q-22 0 -36 11.5
t-14 30.5v258zM677 0h-194q-39 0 -39 34q0 76 88 159l30 28q33 30 45 50t12 42q0 21 -10.5 35.5t-27.5 14.5q-35 0 -40 -59q-3 -34 -46 -34q-45 0 -45 48q0 53 33.5 84t95.5 31q69 0 105 -28t36 -80q0 -64 -57 -117l-54 -49q-48 -44 -60 -83h128q24 0 35.5 -8t11.5 -30
q0 -38 -47 -38z" />
    <glyph glyph-name="threequarters" unicode="&#xbe;" horiz-adv-x="740" 
d="M582 144v171h-2l-86 -171h88zM582 31v37h-115q-27 0 -39 8.5t-12 30.5q0 23 13 48l130 248q13 24 60 24q54 0 54 -38v-245h15q36 0 36 -38t-36 -38h-15v-37q0 -44 -46 -44q-45 0 -45 44zM201 22l303 697q12 26 43 26q17 0 26 -9.5t9 -21.5q0 -16 -6 -29l-303 -697
q-12 -26 -43 -26q-17 0 -26 9.5t-9 21.5q0 15 6 29zM153 280q-43 0 -73 11.5t-44 30.5t-19.5 35.5t-5.5 32.5q0 48 46 48q47 0 50 -42q3 -52 48 -52q47 0 47 68q0 41 -12.5 55.5t-41.5 16.5q-26 2 -35.5 9t-9.5 22q0 16 8 22.5t33 10.5q27 5 37.5 18t10.5 44q0 46 -40 46
q-35 0 -42 -37q-6 -33 -48 -33q-43 0 -43 36q0 44 32 71t99 27q143 0 143 -111q0 -72 -56 -88v-2q37 -12 51.5 -37t14.5 -69q0 -133 -150 -133z" />
    <glyph glyph-name="questiondown" unicode="&#xbf;" horiz-adv-x="481" 
d="M134 164l29 32q34 37 45.5 59.5t15.5 59.5q2 23 16.5 37.5t40.5 14.5q25 0 41 -17t16 -46q0 -81 -58 -148l-36 -41q-57 -65 -57 -129q0 -34 16 -55.5t46 -21.5q23 0 39 15t20 40q4 37 18.5 51.5t43.5 14.5q27 0 43.5 -16.5t16.5 -44.5q0 -71 -47.5 -116t-128.5 -45
q-195 0 -195 187q0 48 18 87t57 82zM205 478q0 32 22.5 54t53.5 22t53.5 -22t22.5 -54t-22.5 -54t-53.5 -22t-53.5 22t-22.5 54z" />
    <glyph glyph-name="Agrave" unicode="&#xc0;" horiz-adv-x="519" 
d="M338 180h-165l-27 -130q-7 -34 -22.5 -48.5t-47.5 -14.5q-30 0 -46.5 15.5t-16.5 42.5q0 23 8 55l128 539q13 56 34 75t76 19q51 0 74 -19.5t36 -74.5l127 -535q10 -44 10 -55q0 -31 -19 -46.5t-47 -15.5q-37 0 -54 18.5t-27 68.5zM195 286h122l-59 299h-2zM257 784
l-79 73q-25 23 -25 46q0 19 13.5 31t30.5 12q23 0 39 -16l84 -85q15 -15 15 -33q0 -19 -11.5 -31.5t-30.5 -12.5q-18 0 -36 16z" />
    <glyph glyph-name="Aacute" unicode="&#xc1;" horiz-adv-x="519" 
d="M338 180h-165l-27 -130q-7 -34 -22.5 -48.5t-47.5 -14.5q-30 0 -46.5 15.5t-16.5 42.5q0 23 8 55l128 539q13 56 34 75t76 19q51 0 74 -19.5t36 -74.5l127 -535q10 -44 10 -55q0 -31 -19 -46.5t-47 -15.5q-37 0 -54 18.5t-27 68.5zM195 286h122l-59 299h-2zM212 845
l84 85q16 16 39 16q17 0 30.5 -12t13.5 -31q0 -23 -25 -46l-79 -73q-18 -16 -36 -16q-19 0 -30.5 12.5t-11.5 31.5q0 18 15 33z" />
    <glyph glyph-name="Acircumflex" unicode="&#xc2;" horiz-adv-x="519" 
d="M338 180h-165l-27 -130q-7 -34 -22.5 -48.5t-47.5 -14.5q-30 0 -46.5 15.5t-16.5 42.5q0 23 8 55l128 539q13 56 34 75t76 19q51 0 74 -19.5t36 -74.5l127 -535q10 -44 10 -55q0 -31 -19 -46.5t-47 -15.5q-37 0 -54 18.5t-27 68.5zM195 286h122l-59 299h-2zM150 840
l43 65q27 41 73 41t73 -41l43 -65q12 -17 12 -31q0 -18 -12.5 -29.5t-31.5 -11.5q-22 0 -36 22l-48 80l-48 -80q-14 -22 -36 -22q-19 0 -31.5 11.5t-12.5 29.5q0 14 12 31z" />
    <glyph glyph-name="Atilde" unicode="&#xc3;" horiz-adv-x="519" 
d="M338 180h-165l-27 -130q-7 -34 -22.5 -48.5t-47.5 -14.5q-30 0 -46.5 15.5t-16.5 42.5q0 23 8 55l128 539q13 56 34 75t76 19q51 0 74 -19.5t36 -74.5l127 -535q10 -44 10 -55q0 -31 -19 -46.5t-47 -15.5q-37 0 -54 18.5t-27 68.5zM195 286h122l-59 299h-2zM101 814
q0 29 32 57t66 28q29 0 69.5 -13t47.5 -13q16 0 38.5 17.5t36.5 17.5q17 0 28.5 -10t11.5 -26q0 -32 -30 -61t-67 -29q-10 0 -63.5 13t-59.5 13q-13 0 -33 -17t-34 -17q-19 0 -31 11t-12 29z" />
    <glyph glyph-name="Adieresis" unicode="&#xc4;" horiz-adv-x="519" 
d="M338 180h-165l-27 -130q-7 -34 -22.5 -48.5t-47.5 -14.5q-30 0 -46.5 15.5t-16.5 42.5q0 23 8 55l128 539q13 56 34 75t76 19q51 0 74 -19.5t36 -74.5l127 -535q10 -44 10 -55q0 -31 -19 -46.5t-47 -15.5q-37 0 -54 18.5t-27 68.5zM195 286h122l-59 299h-2zM106 845
q0 28 19.5 47.5t47.5 19.5t47.5 -19.5t19.5 -47.5t-19.5 -47.5t-47.5 -19.5t-47.5 19.5t-19.5 47.5zM292 845q0 28 19.5 47.5t47.5 19.5t47.5 -19.5t19.5 -47.5t-19.5 -47.5t-47.5 -19.5t-47.5 19.5t-19.5 47.5z" />
    <glyph glyph-name="Aring" unicode="&#xc5;" horiz-adv-x="519" 
d="M338 180h-165l-27 -130q-7 -34 -22.5 -48.5t-47.5 -14.5q-30 0 -46.5 15.5t-16.5 42.5q0 23 8 55l128 539q13 56 34 75t76 19q51 0 74 -19.5t36 -74.5l127 -535q10 -44 10 -55q0 -31 -19 -46.5t-47 -15.5q-37 0 -54 18.5t-27 68.5zM195 286h122l-59 299h-2zM154 859
q0 44 31 75t75 31t75 -31t31 -75t-31 -75t-75 -31t-75 31t-31 75zM212 859q0 -20 14 -34t34 -14t34 14t14 34t-14 34t-34 14t-34 -14t-14 -34z" />
    <glyph glyph-name="AE" unicode="&#xc6;" horiz-adv-x="778" 
d="M475 600v-166h187q70 0 70 -60t-70 -60h-187v-194h199q70 0 70 -60t-70 -60h-261q-72 0 -72 72v108h-164l-33 -121q-10 -35 -25 -53.5t-46 -18.5t-49 18t-18 40q0 10 7 36l167 585q15 54 72 54h422q70 0 70 -60t-70 -60h-199zM293 606l-87 -320h135v320h-48z" />
    <glyph glyph-name="Ccedilla" unicode="&#xc7;" horiz-adv-x="500" 
d="M201 -60l28 43q-38 3 -68 16t-50 29.5t-33.5 43t-21 49.5t-11.5 57.5t-4.5 58t-0.5 59.5v114q0 185 53 256t178 71q96 0 149 -51t53 -129q0 -80 -68 -80q-38 0 -52 17t-20 64q-10 73 -62 73q-34 0 -51.5 -15t-28.5 -68.5t-11 -158.5v-40q0 -50 0.5 -79.5t3.5 -63.5
t8.5 -52t15 -35t24 -23.5t35.5 -6.5q26 0 46 21.5t21 51.5q3 63 17 86.5t55 23.5q68 0 68 -79q0 -101 -51 -152.5t-142 -57.5l-26 -39h13q87 0 87 -70q0 -40 -34 -65t-84 -25q-33 0 -55.5 10.5t-22.5 27.5q0 11 6 18t14 7q9 0 26.5 -5.5t24.5 -5.5q18 0 31 9t13 27
q0 13 -10 22.5t-24 9.5q-5 0 -16 -1.5t-15 -1.5q-8 0 -13.5 5t-5.5 11q0 7 11 23z" />
    <glyph glyph-name="Egrave" unicode="&#xc8;" horiz-adv-x="500" 
d="M190 314v-194h206q70 0 70 -60t-70 -60h-268q-72 0 -72 72v576q0 72 72 72h261q70 0 70 -60t-70 -60h-199v-166h186q70 0 70 -60t-70 -60h-186zM253 784l-79 73q-25 23 -25 46q0 19 13.5 31t30.5 12q23 0 39 -16l84 -85q15 -15 15 -33q0 -19 -11.5 -31.5t-30.5 -12.5
q-18 0 -36 16z" />
    <glyph glyph-name="Eacute" unicode="&#xc9;" horiz-adv-x="500" 
d="M190 314v-194h206q70 0 70 -60t-70 -60h-268q-72 0 -72 72v576q0 72 72 72h261q70 0 70 -60t-70 -60h-199v-166h186q70 0 70 -60t-70 -60h-186zM208 845l84 85q16 16 39 16q17 0 30.5 -12t13.5 -31q0 -23 -25 -46l-79 -73q-18 -16 -36 -16q-19 0 -30.5 12.5t-11.5 31.5
q0 18 15 33z" />
    <glyph glyph-name="Ecircumflex" unicode="&#xca;" horiz-adv-x="500" 
d="M190 314v-194h206q70 0 70 -60t-70 -60h-268q-72 0 -72 72v576q0 72 72 72h261q70 0 70 -60t-70 -60h-199v-166h186q70 0 70 -60t-70 -60h-186zM146 840l43 65q27 41 73 41t73 -41l43 -65q12 -17 12 -31q0 -18 -12.5 -29.5t-31.5 -11.5q-22 0 -36 22l-48 80l-48 -80
q-14 -22 -36 -22q-19 0 -31.5 11.5t-12.5 29.5q0 14 12 31z" />
    <glyph glyph-name="Edieresis" unicode="&#xcb;" horiz-adv-x="500" 
d="M190 314v-194h206q70 0 70 -60t-70 -60h-268q-72 0 -72 72v576q0 72 72 72h261q70 0 70 -60t-70 -60h-199v-166h186q70 0 70 -60t-70 -60h-186zM102 845q0 28 19.5 47.5t47.5 19.5t47.5 -19.5t19.5 -47.5t-19.5 -47.5t-47.5 -19.5t-47.5 19.5t-19.5 47.5zM288 845
q0 28 19.5 47.5t47.5 19.5t47.5 -19.5t19.5 -47.5t-19.5 -47.5t-47.5 -19.5t-47.5 19.5t-19.5 47.5z" />
    <glyph glyph-name="Igrave" unicode="&#xcc;" horiz-adv-x="258" 
d="M62 56v608q0 31 19.5 50t47.5 19t47.5 -19t19.5 -50v-608q0 -31 -19.5 -50t-47.5 -19t-47.5 19t-19.5 50zM126 784l-79 73q-25 23 -25 46q0 19 13.5 31t30.5 12q23 0 39 -16l84 -85q15 -15 15 -33q0 -19 -11.5 -31.5t-30.5 -12.5q-18 0 -36 16z" />
    <glyph glyph-name="Iacute" unicode="&#xcd;" horiz-adv-x="258" 
d="M62 56v608q0 31 19.5 50t47.5 19t47.5 -19t19.5 -50v-608q0 -31 -19.5 -50t-47.5 -19t-47.5 19t-19.5 50zM81 845l84 85q16 16 39 16q17 0 30.5 -12t13.5 -31q0 -23 -25 -46l-79 -73q-18 -16 -36 -16q-19 0 -30.5 12.5t-11.5 31.5q0 18 15 33z" />
    <glyph glyph-name="Icircumflex" unicode="&#xce;" horiz-adv-x="258" 
d="M62 56v608q0 31 19.5 50t47.5 19t47.5 -19t19.5 -50v-608q0 -31 -19.5 -50t-47.5 -19t-47.5 19t-19.5 50zM13 840l43 65q27 41 73 41t73 -41l43 -65q12 -17 12 -31q0 -18 -12.5 -29.5t-31.5 -11.5q-22 0 -36 22l-48 80l-48 -80q-14 -22 -36 -22q-19 0 -31.5 11.5
t-12.5 29.5q0 14 12 31z" />
    <glyph glyph-name="Idieresis" unicode="&#xcf;" horiz-adv-x="258" 
d="M62 56v608q0 31 19.5 50t47.5 19t47.5 -19t19.5 -50v-608q0 -31 -19.5 -50t-47.5 -19t-47.5 19t-19.5 50zM-31 845q0 28 19.5 47.5t47.5 19.5t47.5 -19.5t19.5 -47.5t-19.5 -47.5t-47.5 -19.5t-47.5 19.5t-19.5 47.5zM155 845q0 28 19.5 47.5t47.5 19.5t47.5 -19.5
t19.5 -47.5t-19.5 -47.5t-47.5 -19.5t-47.5 19.5t-19.5 47.5z" />
    <glyph glyph-name="Eth" unicode="&#xd0;" horiz-adv-x="537" 
d="M190 614v-187h60q17 0 28 -13t11 -38q0 -24 -11 -37t-28 -13h-60v-220h62q56 0 80.5 49t24.5 182v58q0 123 -20.5 171t-80.5 48h-66zM56 72v254h-34q-17 0 -28 13t-11 37q0 25 11 38t28 13h34v221q0 72 72 72h175q103 0 148.5 -75t45.5 -240v-93q0 -312 -200 -312h-169
q-72 0 -72 72z" />
    <glyph glyph-name="Ntilde" unicode="&#xd1;" horiz-adv-x="574" 
d="M56 56v608q0 32 19.5 50.5t54.5 18.5q34 0 55 -13.5t38 -54.5l159 -394h2v393q0 31 19.5 50t47.5 19t47.5 -19t19.5 -50v-602q0 -35 -19.5 -55t-47.5 -20q-42 0 -63 13.5t-37 54.5l-159 400h-2v-399q0 -31 -19.5 -50t-47.5 -19t-47.5 19t-19.5 50zM122 814q0 29 32 57
t66 28q29 0 69.5 -13t47.5 -13q16 0 38.5 17.5t36.5 17.5q17 0 28.5 -10t11.5 -26q0 -32 -30 -61t-67 -29q-10 0 -63.5 13t-59.5 13q-13 0 -33 -17t-34 -17q-19 0 -31 11t-12 29z" />
    <glyph glyph-name="Ograve" unicode="&#xd2;" horiz-adv-x="520" 
d="M40 290v152q0 76 12.5 131.5t32 86.5t50 49t59 23t66.5 5t66.5 -5t59 -23t50 -49t32 -86.5t12.5 -131.5v-152q0 -79 -11.5 -136t-30 -89.5t-48 -51.5t-59.5 -24.5t-71 -5.5t-71 5.5t-59.5 24.5t-48 51.5t-30 89.5t-11.5 136zM180 442v-152q0 -86 9.5 -130.5t25 -57.5
t45.5 -13t45.5 13t25 57.5t9.5 130.5v152q0 111 -19 150t-61 39t-61 -39t-19 -150zM251 784l-79 73q-25 23 -25 46q0 19 13.5 31t30.5 12q23 0 39 -16l84 -85q15 -15 15 -33q0 -19 -11.5 -31.5t-30.5 -12.5q-18 0 -36 16z" />
    <glyph glyph-name="Oacute" unicode="&#xd3;" horiz-adv-x="520" 
d="M40 290v152q0 76 12.5 131.5t32 86.5t50 49t59 23t66.5 5t66.5 -5t59 -23t50 -49t32 -86.5t12.5 -131.5v-152q0 -79 -11.5 -136t-30 -89.5t-48 -51.5t-59.5 -24.5t-71 -5.5t-71 5.5t-59.5 24.5t-48 51.5t-30 89.5t-11.5 136zM180 442v-152q0 -86 9.5 -130.5t25 -57.5
t45.5 -13t45.5 13t25 57.5t9.5 130.5v152q0 111 -19 150t-61 39t-61 -39t-19 -150zM206 845l84 85q16 16 39 16q17 0 30.5 -12t13.5 -31q0 -23 -25 -46l-79 -73q-18 -16 -36 -16q-19 0 -30.5 12.5t-11.5 31.5q0 18 15 33z" />
    <glyph glyph-name="Ocircumflex" unicode="&#xd4;" horiz-adv-x="520" 
d="M40 290v152q0 76 12.5 131.5t32 86.5t50 49t59 23t66.5 5t66.5 -5t59 -23t50 -49t32 -86.5t12.5 -131.5v-152q0 -79 -11.5 -136t-30 -89.5t-48 -51.5t-59.5 -24.5t-71 -5.5t-71 5.5t-59.5 24.5t-48 51.5t-30 89.5t-11.5 136zM180 442v-152q0 -86 9.5 -130.5t25 -57.5
t45.5 -13t45.5 13t25 57.5t9.5 130.5v152q0 111 -19 150t-61 39t-61 -39t-19 -150zM144 840l43 65q27 41 73 41t73 -41l43 -65q12 -17 12 -31q0 -18 -12.5 -29.5t-31.5 -11.5q-22 0 -36 22l-48 80l-48 -80q-14 -22 -36 -22q-19 0 -31.5 11.5t-12.5 29.5q0 14 12 31z" />
    <glyph glyph-name="Otilde" unicode="&#xd5;" horiz-adv-x="520" 
d="M40 290v152q0 76 12.5 131.5t32 86.5t50 49t59 23t66.5 5t66.5 -5t59 -23t50 -49t32 -86.5t12.5 -131.5v-152q0 -79 -11.5 -136t-30 -89.5t-48 -51.5t-59.5 -24.5t-71 -5.5t-71 5.5t-59.5 24.5t-48 51.5t-30 89.5t-11.5 136zM180 442v-152q0 -86 9.5 -130.5t25 -57.5
t45.5 -13t45.5 13t25 57.5t9.5 130.5v152q0 111 -19 150t-61 39t-61 -39t-19 -150zM95 814q0 29 32 57t66 28q29 0 69.5 -13t47.5 -13q16 0 38.5 17.5t36.5 17.5q17 0 28.5 -10t11.5 -26q0 -32 -30 -61t-67 -29q-10 0 -63.5 13t-59.5 13q-13 0 -33 -17t-34 -17q-19 0 -31 11
t-12 29z" />
    <glyph glyph-name="Odieresis" unicode="&#xd6;" horiz-adv-x="520" 
d="M40 290v152q0 76 12.5 131.5t32 86.5t50 49t59 23t66.5 5t66.5 -5t59 -23t50 -49t32 -86.5t12.5 -131.5v-152q0 -79 -11.5 -136t-30 -89.5t-48 -51.5t-59.5 -24.5t-71 -5.5t-71 5.5t-59.5 24.5t-48 51.5t-30 89.5t-11.5 136zM180 442v-152q0 -86 9.5 -130.5t25 -57.5
t45.5 -13t45.5 13t25 57.5t9.5 130.5v152q0 111 -19 150t-61 39t-61 -39t-19 -150zM100 845q0 28 19.5 47.5t47.5 19.5t47.5 -19.5t19.5 -47.5t-19.5 -47.5t-47.5 -19.5t-47.5 19.5t-19.5 47.5zM286 845q0 28 19.5 47.5t47.5 19.5t47.5 -19.5t19.5 -47.5t-19.5 -47.5
t-47.5 -19.5t-47.5 19.5t-19.5 47.5z" />
    <glyph glyph-name="multiply" unicode="&#xd7;" horiz-adv-x="600" 
d="M225 283l-138 137q-25 25 -25 57q0 16 14 30t32 14q29 0 55 -26l137 -137l137 137q26 26 55 26q18 0 32 -14t14 -30q0 -32 -25 -57l-138 -137l138 -137q25 -25 25 -57q0 -16 -14 -30t-32 -14q-29 0 -55 26l-137 137l-137 -137q-26 -26 -55 -26q-18 0 -32 14t-14 30
q0 32 25 57z" />
    <glyph glyph-name="Oslash" unicode="&#xd8;" horiz-adv-x="520" 
d="M180 442v-168h2l153 262q-6 51 -24 73t-51 22q-42 0 -61 -39t-19 -150zM340 290v157h-2l-153 -265q7 -53 23.5 -73t51.5 -20q30 0 45.5 13t25 57.5t9.5 130.5zM40 290v152q0 76 12.5 131.5t32 86.5t50 49t59 23t66.5 5q109 0 158 -54l19 32q10 18 17 24.5t17 6.5t17 -6.5
t7 -15.5q0 -10 -12 -29l-35 -60q32 -73 32 -193v-152q0 -79 -11.5 -136t-30 -89.5t-48 -51.5t-59.5 -24.5t-71 -5.5q-111 0 -158 54l-14 -25q-21 -38 -40 -38q-10 0 -16.5 7t-6.5 14q0 10 15 36l32 55q-32 61 -32 204z" />
    <glyph glyph-name="Ugrave" unicode="&#xd9;" horiz-adv-x="537" 
d="M51 191v473q0 31 19.5 50t47.5 19t47.5 -19t19.5 -50v-460q0 -115 84 -115q39 0 61 28.5t22 86.5v460q0 31 19.5 50t47.5 19t47.5 -19t19.5 -50v-473q0 -97 -55.5 -152.5t-161.5 -55.5t-162 55.5t-56 152.5zM260 784l-79 73q-25 23 -25 46q0 19 13.5 31t30.5 12
q23 0 39 -16l84 -85q15 -15 15 -33q0 -19 -11.5 -31.5t-30.5 -12.5q-18 0 -36 16z" />
    <glyph glyph-name="Uacute" unicode="&#xda;" horiz-adv-x="537" 
d="M51 191v473q0 31 19.5 50t47.5 19t47.5 -19t19.5 -50v-460q0 -115 84 -115q39 0 61 28.5t22 86.5v460q0 31 19.5 50t47.5 19t47.5 -19t19.5 -50v-473q0 -97 -55.5 -152.5t-161.5 -55.5t-162 55.5t-56 152.5zM215 845l84 85q16 16 39 16q17 0 30.5 -12t13.5 -31
q0 -23 -25 -46l-79 -73q-18 -16 -36 -16q-19 0 -30.5 12.5t-11.5 31.5q0 18 15 33z" />
    <glyph glyph-name="Ucircumflex" unicode="&#xdb;" horiz-adv-x="537" 
d="M51 191v473q0 31 19.5 50t47.5 19t47.5 -19t19.5 -50v-460q0 -115 84 -115q39 0 61 28.5t22 86.5v460q0 31 19.5 50t47.5 19t47.5 -19t19.5 -50v-473q0 -97 -55.5 -152.5t-161.5 -55.5t-162 55.5t-56 152.5zM153 840l43 65q27 41 73 41t73 -41l43 -65q12 -17 12 -31
q0 -18 -12.5 -29.5t-31.5 -11.5q-22 0 -36 22l-48 80l-48 -80q-14 -22 -36 -22q-19 0 -31.5 11.5t-12.5 29.5q0 14 12 31z" />
    <glyph glyph-name="Udieresis" unicode="&#xdc;" horiz-adv-x="537" 
d="M51 191v473q0 31 19.5 50t47.5 19t47.5 -19t19.5 -50v-460q0 -115 84 -115q39 0 61 28.5t22 86.5v460q0 31 19.5 50t47.5 19t47.5 -19t19.5 -50v-473q0 -97 -55.5 -152.5t-161.5 -55.5t-162 55.5t-56 152.5zM109 845q0 28 19.5 47.5t47.5 19.5t47.5 -19.5t19.5 -47.5
t-19.5 -47.5t-47.5 -19.5t-47.5 19.5t-19.5 47.5zM295 845q0 28 19.5 47.5t47.5 19.5t47.5 -19.5t19.5 -47.5t-19.5 -47.5t-47.5 -19.5t-47.5 19.5t-19.5 47.5z" />
    <glyph glyph-name="Yacute" unicode="&#xdd;" horiz-adv-x="481" 
d="M174 56v240l-146 329q-12 28 -12 47q0 30 19 45.5t47 15.5q31 0 44.5 -12.5t28.5 -50.5l86 -228l91 238q12 31 28 42t41 11q27 0 45.5 -16.5t18.5 -37.5q0 -19 -10 -41l-147 -335v-247q0 -31 -19.5 -50t-47.5 -19t-47.5 19t-19.5 50zM187 845l84 85q16 16 39 16
q17 0 30.5 -12t13.5 -31q0 -23 -25 -46l-79 -73q-18 -16 -36 -16q-19 0 -30.5 12.5t-11.5 31.5q0 18 15 33z" />
    <glyph glyph-name="Thorn" unicode="&#xde;" horiz-adv-x="500" 
d="M56 56v608q0 31 19.5 50t47.5 19t47.5 -19t19.5 -50v-60h105q182 0 182 -203q0 -91 -43.5 -151t-127.5 -60h-116v-134q0 -31 -19.5 -50t-47.5 -19t-47.5 19t-19.5 50zM190 503v-212h60q87 0 87 104q0 108 -80 108h-67z" />
    <glyph glyph-name="germandbls" unicode="&#xdf;" horiz-adv-x="481" 
d="M54 60v510q0 79 47.5 121t139.5 42q84 0 130 -44t46 -122q0 -102 -71 -131v-2q47 -13 65 -54.5t18 -111.5q0 -40 -1.5 -68.5t-6 -63t-15 -57.5t-26.5 -44t-42 -31t-60 -10q-25 0 -43.5 13t-18.5 38q0 21 9 32.5t38 21.5q23 8 30.5 37t7.5 108q0 64 -9.5 94.5t-38.5 40.5
q-35 12 -35 49q0 23 8 33.5t28 19.5q35 17 35 67q0 84 -53 84q-60 0 -60 -78v-494q0 -73 -61 -73t-61 73z" />
    <glyph glyph-name="agrave" unicode="&#xe0;" horiz-adv-x="444" 
d="M395 394v-278q0 -20 3.5 -47.5t3.5 -33.5q0 -48 -61 -48q-64 0 -64 69l-2 -1q-31 -68 -111 -68q-57 0 -91.5 36t-34.5 109q0 62 20 100t67 63l109 57q39 20 39 57q0 23 -12.5 38.5t-34.5 15.5q-30 0 -43 -15t-17 -49q-2 -18 -18 -28.5t-40 -10.5t-44 12.5t-20 37.5
q0 68 48 106t122 38q59 0 97 -12t55.5 -36t23 -49t5.5 -63zM273 184v96l-43 -30q-40 -28 -52 -48t-12 -55q0 -30 11.5 -47t31.5 -17q29 0 46.5 28.5t17.5 72.5zM213 605l-79 73q-25 23 -25 46q0 19 13.5 31t30.5 12q23 0 39 -16l84 -85q15 -15 15 -33q0 -19 -11.5 -31.5
t-30.5 -12.5q-18 0 -36 16z" />
    <glyph glyph-name="aacute" unicode="&#xe1;" horiz-adv-x="444" 
d="M395 394v-278q0 -20 3.5 -47.5t3.5 -33.5q0 -48 -61 -48q-64 0 -64 69l-2 -1q-31 -68 -111 -68q-57 0 -91.5 36t-34.5 109q0 62 20 100t67 63l109 57q39 20 39 57q0 23 -12.5 38.5t-34.5 15.5q-30 0 -43 -15t-17 -49q-2 -18 -18 -28.5t-40 -10.5t-44 12.5t-20 37.5
q0 68 48 106t122 38q59 0 97 -12t55.5 -36t23 -49t5.5 -63zM273 184v96l-43 -30q-40 -28 -52 -48t-12 -55q0 -30 11.5 -47t31.5 -17q29 0 46.5 28.5t17.5 72.5zM168 666l84 85q16 16 39 16q17 0 30.5 -12t13.5 -31q0 -23 -25 -46l-79 -73q-18 -16 -36 -16q-19 0 -30.5 12.5
t-11.5 31.5q0 18 15 33z" />
    <glyph glyph-name="acircumflex" unicode="&#xe2;" horiz-adv-x="444" 
d="M395 394v-278q0 -20 3.5 -47.5t3.5 -33.5q0 -48 -61 -48q-64 0 -64 69l-2 -1q-31 -68 -111 -68q-57 0 -91.5 36t-34.5 109q0 62 20 100t67 63l109 57q39 20 39 57q0 23 -12.5 38.5t-34.5 15.5q-30 0 -43 -15t-17 -49q-2 -18 -18 -28.5t-40 -10.5t-44 12.5t-20 37.5
q0 68 48 106t122 38q59 0 97 -12t55.5 -36t23 -49t5.5 -63zM273 184v96l-43 -30q-40 -28 -52 -48t-12 -55q0 -30 11.5 -47t31.5 -17q29 0 46.5 28.5t17.5 72.5zM106 661l43 65q27 41 73 41t73 -41l43 -65q12 -17 12 -31q0 -18 -12.5 -29.5t-31.5 -11.5q-22 0 -36 22l-48 80
l-48 -80q-14 -22 -36 -22q-19 0 -31.5 11.5t-12.5 29.5q0 14 12 31z" />
    <glyph glyph-name="atilde" unicode="&#xe3;" horiz-adv-x="444" 
d="M395 394v-278q0 -20 3.5 -47.5t3.5 -33.5q0 -48 -61 -48q-64 0 -64 69l-2 -1q-31 -68 -111 -68q-57 0 -91.5 36t-34.5 109q0 62 20 100t67 63l109 57q39 20 39 57q0 23 -12.5 38.5t-34.5 15.5q-30 0 -43 -15t-17 -49q-2 -18 -18 -28.5t-40 -10.5t-44 12.5t-20 37.5
q0 68 48 106t122 38q59 0 97 -12t55.5 -36t23 -49t5.5 -63zM273 184v96l-43 -30q-40 -28 -52 -48t-12 -55q0 -30 11.5 -47t31.5 -17q29 0 46.5 28.5t17.5 72.5zM57 635q0 29 32 57t66 28q29 0 69.5 -13t47.5 -13q16 0 38.5 17.5t36.5 17.5q17 0 28.5 -10t11.5 -26
q0 -32 -30 -61t-67 -29q-10 0 -63.5 13t-59.5 13q-13 0 -33 -17t-34 -17q-19 0 -31 11t-12 29z" />
    <glyph glyph-name="adieresis" unicode="&#xe4;" horiz-adv-x="444" 
d="M395 394v-278q0 -20 3.5 -47.5t3.5 -33.5q0 -48 -61 -48q-64 0 -64 69l-2 -1q-31 -68 -111 -68q-57 0 -91.5 36t-34.5 109q0 62 20 100t67 63l109 57q39 20 39 57q0 23 -12.5 38.5t-34.5 15.5q-30 0 -43 -15t-17 -49q-2 -18 -18 -28.5t-40 -10.5t-44 12.5t-20 37.5
q0 68 48 106t122 38q59 0 97 -12t55.5 -36t23 -49t5.5 -63zM273 184v96l-43 -30q-40 -28 -52 -48t-12 -55q0 -30 11.5 -47t31.5 -17q29 0 46.5 28.5t17.5 72.5zM62 666q0 28 19.5 47.5t47.5 19.5t47.5 -19.5t19.5 -47.5t-19.5 -47.5t-47.5 -19.5t-47.5 19.5t-19.5 47.5z
M248 666q0 28 19.5 47.5t47.5 19.5t47.5 -19.5t19.5 -47.5t-19.5 -47.5t-47.5 -19.5t-47.5 19.5t-19.5 47.5z" />
    <glyph glyph-name="aring" unicode="&#xe5;" horiz-adv-x="444" 
d="M395 394v-278q0 -20 3.5 -47.5t3.5 -33.5q0 -48 -61 -48q-64 0 -64 69l-2 -1q-31 -68 -111 -68q-57 0 -91.5 36t-34.5 109q0 62 20 100t67 63l109 57q39 20 39 57q0 23 -12.5 38.5t-34.5 15.5q-30 0 -43 -15t-17 -49q-2 -18 -18 -28.5t-40 -10.5t-44 12.5t-20 37.5
q0 68 48 106t122 38q59 0 97 -12t55.5 -36t23 -49t5.5 -63zM273 184v96l-43 -30q-40 -28 -52 -48t-12 -55q0 -30 11.5 -47t31.5 -17q29 0 46.5 28.5t17.5 72.5zM126 695q0 44 31 75t75 31t75 -31t31 -75t-31 -75t-75 -31t-75 31t-31 75zM184 695q0 -20 14 -34t34 -14t34 14
t14 34t-14 34t-34 14t-34 -14t-14 -34z" />
    <glyph glyph-name="ae" unicode="&#xe6;" horiz-adv-x="648" 
d="M548 254h-161v-55q0 -58 10.5 -87t44.5 -29q20 0 33.5 17t14.5 39q1 37 16.5 51t43.5 14q62 0 62 -60q0 -73 -45.5 -115t-120.5 -42q-57 0 -92 16.5t-59 54.5q-47 -71 -131 -71q-57 0 -91.5 36t-34.5 109q0 62 20 100t67 63l109 57q39 20 39 57q0 23 -12.5 38.5
t-34.5 15.5q-30 0 -43 -15t-17 -49q-2 -18 -18 -28.5t-40 -10.5t-44 12.5t-20 37.5q0 68 48 106t122 38q80 0 120 -40q47 40 112 40q93 0 131.5 -51.5t38.5 -161.5q0 -44 -13 -65.5t-55 -21.5zM209 83q29 0 46.5 28.5t17.5 72.5v96l-43 -30q-40 -28 -52 -48t-12 -55
q0 -30 11.5 -47t31.5 -17zM387 340h107v45q0 73 -54 73q-53 0 -53 -73v-45z" />
    <glyph glyph-name="ccedilla" unicode="&#xe7;" horiz-adv-x="426" 
d="M162 -60l31 49q-40 3 -68.5 17.5t-44 34t-24.5 50.5t-11.5 59.5t-2.5 70.5v99q0 45 3 75t13.5 62.5t29 52t52.5 32t81 12.5q40 0 71 -11t49 -27t29.5 -37t15.5 -38.5t4 -34.5q0 -34 -16.5 -51.5t-43.5 -17.5q-32 0 -47 16t-15 53q0 25 -13 38.5t-33 13.5q-18 0 -29 -9
t-15.5 -28.5t-6 -38.5t-1.5 -51v-120q0 -69 11.5 -98.5t40.5 -29.5q45 0 46 55q2 50 16.5 69t45.5 19q27 0 43.5 -19t16.5 -52q0 -23 -6 -46.5t-20 -50.5t-45 -45.5t-74 -22.5l-29 -46h13q87 0 87 -70q0 -40 -34 -65t-84 -25q-33 0 -55.5 10.5t-22.5 27.5q0 11 6 18t14 7
q9 0 26.5 -5.5t24.5 -5.5q18 0 31 9t13 27q0 13 -10 22.5t-24 9.5q-5 0 -16 -1.5t-15 -1.5q-8 0 -13.5 5t-5.5 11q0 7 11 23z" />
    <glyph glyph-name="egrave" unicode="&#xe8;" horiz-adv-x="426" 
d="M166 340h106v45q0 73 -53 73t-53 -73v-45zM38 214v113q0 58 6 94.5t24.5 69.5t56.5 48t99 15q93 0 131.5 -51.5t38.5 -161.5q0 -44 -13 -65.5t-55 -21.5h-160v-55q0 -58 10.5 -87t44.5 -29q19 0 32.5 17t14.5 39q1 37 16.5 51t43.5 14q62 0 62 -60q0 -73 -45.5 -115
t-120.5 -42q-61 0 -99 15t-56.5 48t-24.5 69.5t-6 94.5zM210 605l-79 73q-25 23 -25 46q0 19 13.5 31t30.5 12q23 0 39 -16l84 -85q15 -15 15 -33q0 -19 -11.5 -31.5t-30.5 -12.5q-18 0 -36 16z" />
    <glyph glyph-name="eacute" unicode="&#xe9;" horiz-adv-x="426" 
d="M166 340h106v45q0 73 -53 73t-53 -73v-45zM38 214v113q0 58 6 94.5t24.5 69.5t56.5 48t99 15q93 0 131.5 -51.5t38.5 -161.5q0 -44 -13 -65.5t-55 -21.5h-160v-55q0 -58 10.5 -87t44.5 -29q19 0 32.5 17t14.5 39q1 37 16.5 51t43.5 14q62 0 62 -60q0 -73 -45.5 -115
t-120.5 -42q-61 0 -99 15t-56.5 48t-24.5 69.5t-6 94.5zM165 666l84 85q16 16 39 16q17 0 30.5 -12t13.5 -31q0 -23 -25 -46l-79 -73q-18 -16 -36 -16q-19 0 -30.5 12.5t-11.5 31.5q0 18 15 33z" />
    <glyph glyph-name="ecircumflex" unicode="&#xea;" horiz-adv-x="426" 
d="M166 340h106v45q0 73 -53 73t-53 -73v-45zM38 214v113q0 58 6 94.5t24.5 69.5t56.5 48t99 15q93 0 131.5 -51.5t38.5 -161.5q0 -44 -13 -65.5t-55 -21.5h-160v-55q0 -58 10.5 -87t44.5 -29q19 0 32.5 17t14.5 39q1 37 16.5 51t43.5 14q62 0 62 -60q0 -73 -45.5 -115
t-120.5 -42q-61 0 -99 15t-56.5 48t-24.5 69.5t-6 94.5zM103 661l43 65q27 41 73 41t73 -41l43 -65q12 -17 12 -31q0 -18 -12.5 -29.5t-31.5 -11.5q-22 0 -36 22l-48 80l-48 -80q-14 -22 -36 -22q-19 0 -31.5 11.5t-12.5 29.5q0 14 12 31z" />
    <glyph glyph-name="edieresis" unicode="&#xeb;" horiz-adv-x="426" 
d="M166 340h106v45q0 73 -53 73t-53 -73v-45zM38 214v113q0 58 6 94.5t24.5 69.5t56.5 48t99 15q93 0 131.5 -51.5t38.5 -161.5q0 -44 -13 -65.5t-55 -21.5h-160v-55q0 -58 10.5 -87t44.5 -29q19 0 32.5 17t14.5 39q1 37 16.5 51t43.5 14q62 0 62 -60q0 -73 -45.5 -115
t-120.5 -42q-61 0 -99 15t-56.5 48t-24.5 69.5t-6 94.5zM59 666q0 28 19.5 47.5t47.5 19.5t47.5 -19.5t19.5 -47.5t-19.5 -47.5t-47.5 -19.5t-47.5 19.5t-19.5 47.5zM245 666q0 28 19.5 47.5t47.5 19.5t47.5 -19.5t19.5 -47.5t-19.5 -47.5t-47.5 -19.5t-47.5 19.5
t-19.5 47.5z" />
    <glyph glyph-name="igrave" unicode="&#xec;" 
d="M59 60v421q0 73 61 73t61 -73v-421q0 -73 -61 -73t-61 73zM111 605l-79 73q-25 23 -25 46q0 19 13.5 31t30.5 12q23 0 39 -16l84 -85q15 -15 15 -33q0 -19 -11.5 -31.5t-30.5 -12.5q-18 0 -36 16z" />
    <glyph glyph-name="iacute" unicode="&#xed;" 
d="M59 60v421q0 73 61 73t61 -73v-421q0 -73 -61 -73t-61 73zM66 666l84 85q16 16 39 16q17 0 30.5 -12t13.5 -31q0 -23 -25 -46l-79 -73q-18 -16 -36 -16q-19 0 -30.5 12.5t-11.5 31.5q0 18 15 33z" />
    <glyph glyph-name="icircumflex" unicode="&#xee;" 
d="M59 60v421q0 73 61 73t61 -73v-421q0 -73 -61 -73t-61 73zM4 661l43 65q27 41 73 41t73 -41l43 -65q12 -17 12 -31q0 -18 -12.5 -29.5t-31.5 -11.5q-22 0 -36 22l-48 80l-48 -80q-14 -22 -36 -22q-19 0 -31.5 11.5t-12.5 29.5q0 14 12 31z" />
    <glyph glyph-name="idieresis" unicode="&#xef;" 
d="M59 60v421q0 73 61 73t61 -73v-421q0 -73 -61 -73t-61 73zM-40 666q0 28 19.5 47.5t47.5 19.5t47.5 -19.5t19.5 -47.5t-19.5 -47.5t-47.5 -19.5t-47.5 19.5t-19.5 47.5zM146 666q0 28 19.5 47.5t47.5 19.5t47.5 -19.5t19.5 -47.5t-19.5 -47.5t-47.5 -19.5t-47.5 19.5
t-19.5 47.5z" />
    <glyph glyph-name="eth" unicode="&#xf0;" horiz-adv-x="444" 
d="M166 295v-111q0 -66 11.5 -88.5t44.5 -22.5t44.5 22.5t11.5 88.5v111q0 67 -11.5 89t-44.5 22t-44.5 -22t-11.5 -89zM38 174v131q0 187 172 187q45 0 71 -35l2 2q-9 72 -46 138l-47 -25q-28 -14 -47 -14q-15 0 -25 8.5t-10 21.5q0 29 34 46l38 19q-13 11 -36 21t-36.5 19
t-13.5 24q0 41 47 41q69 0 131 -57l42 22q28 14 47 14q15 0 25 -8.5t10 -21.5q0 -29 -34 -46l-37 -20q38 -51 59.5 -121t21.5 -141v-205q0 -87 -41 -137t-143 -50t-143 50t-41 137z" />
    <glyph glyph-name="ntilde" unicode="&#xf1;" horiz-adv-x="463" 
d="M54 60v421q0 73 61 73t61 -70h2q14 34 45.5 52t68.5 18q53 0 85 -33.5t32 -100.5v-360q0 -73 -61 -73t-61 73v331q0 29 -13 43t-34 14q-64 0 -64 -97v-291q0 -73 -61 -73t-61 73zM73 635q0 29 32 57t66 28q29 0 69.5 -13t47.5 -13q16 0 38.5 17.5t36.5 17.5
q17 0 28.5 -10t11.5 -26q0 -32 -30 -61t-67 -29q-10 0 -63.5 13t-59.5 13q-13 0 -33 -17t-34 -17q-19 0 -31 11t-12 29z" />
    <glyph glyph-name="ograve" unicode="&#xf2;" horiz-adv-x="444" 
d="M166 336v-129q0 -73 12.5 -98.5t43.5 -25.5t43.5 25.5t12.5 98.5v129q0 70 -13.5 96t-42.5 26t-42.5 -26t-13.5 -96zM38 197v147q0 97 41 153.5t143 56.5t143 -56.5t41 -153.5v-147q0 -97 -41 -153.5t-143 -56.5t-143 56.5t-41 153.5zM213 605l-79 73q-25 23 -25 46
q0 19 13.5 31t30.5 12q23 0 39 -16l84 -85q15 -15 15 -33q0 -19 -11.5 -31.5t-30.5 -12.5q-18 0 -36 16z" />
    <glyph glyph-name="oacute" unicode="&#xf3;" horiz-adv-x="444" 
d="M166 336v-129q0 -73 12.5 -98.5t43.5 -25.5t43.5 25.5t12.5 98.5v129q0 70 -13.5 96t-42.5 26t-42.5 -26t-13.5 -96zM38 197v147q0 97 41 153.5t143 56.5t143 -56.5t41 -153.5v-147q0 -97 -41 -153.5t-143 -56.5t-143 56.5t-41 153.5zM168 666l84 85q16 16 39 16
q17 0 30.5 -12t13.5 -31q0 -23 -25 -46l-79 -73q-18 -16 -36 -16q-19 0 -30.5 12.5t-11.5 31.5q0 18 15 33z" />
    <glyph glyph-name="ocircumflex" unicode="&#xf4;" horiz-adv-x="444" 
d="M166 336v-129q0 -73 12.5 -98.5t43.5 -25.5t43.5 25.5t12.5 98.5v129q0 70 -13.5 96t-42.5 26t-42.5 -26t-13.5 -96zM38 197v147q0 97 41 153.5t143 56.5t143 -56.5t41 -153.5v-147q0 -97 -41 -153.5t-143 -56.5t-143 56.5t-41 153.5zM106 661l43 65q27 41 73 41t73 -41
l43 -65q12 -17 12 -31q0 -18 -12.5 -29.5t-31.5 -11.5q-22 0 -36 22l-48 80l-48 -80q-14 -22 -36 -22q-19 0 -31.5 11.5t-12.5 29.5q0 14 12 31z" />
    <glyph glyph-name="otilde" unicode="&#xf5;" horiz-adv-x="444" 
d="M166 336v-129q0 -73 12.5 -98.5t43.5 -25.5t43.5 25.5t12.5 98.5v129q0 70 -13.5 96t-42.5 26t-42.5 -26t-13.5 -96zM38 197v147q0 97 41 153.5t143 56.5t143 -56.5t41 -153.5v-147q0 -97 -41 -153.5t-143 -56.5t-143 56.5t-41 153.5zM57 635q0 29 32 57t66 28
q29 0 69.5 -13t47.5 -13q16 0 38.5 17.5t36.5 17.5q17 0 28.5 -10t11.5 -26q0 -32 -30 -61t-67 -29q-10 0 -63.5 13t-59.5 13q-13 0 -33 -17t-34 -17q-19 0 -31 11t-12 29z" />
    <glyph glyph-name="odieresis" unicode="&#xf6;" horiz-adv-x="444" 
d="M166 336v-129q0 -73 12.5 -98.5t43.5 -25.5t43.5 25.5t12.5 98.5v129q0 70 -13.5 96t-42.5 26t-42.5 -26t-13.5 -96zM38 197v147q0 97 41 153.5t143 56.5t143 -56.5t41 -153.5v-147q0 -97 -41 -153.5t-143 -56.5t-143 56.5t-41 153.5zM62 666q0 28 19.5 47.5t47.5 19.5
t47.5 -19.5t19.5 -47.5t-19.5 -47.5t-47.5 -19.5t-47.5 19.5t-19.5 47.5zM248 666q0 28 19.5 47.5t47.5 19.5t47.5 -19.5t19.5 -47.5t-19.5 -47.5t-47.5 -19.5t-47.5 19.5t-19.5 47.5z" />
    <glyph glyph-name="divide" unicode="&#xf7;" horiz-adv-x="600" 
d="M87 336h426q31 0 50.5 -15.5t19.5 -37.5t-19.5 -37.5t-50.5 -15.5h-426q-31 0 -50.5 15.5t-19.5 37.5t19.5 37.5t50.5 15.5zM224 495q0 31 22 53.5t54 22.5t54 -22.5t22 -53.5t-22 -53.5t-54 -22.5t-54 22.5t-22 53.5zM224 71q0 31 22 53.5t54 22.5t54 -22.5t22 -53.5
t-22 -53.5t-54 -22.5t-54 22.5t-22 53.5z" />
    <glyph glyph-name="oslash" unicode="&#xf8;" horiz-adv-x="444" 
d="M168 222l106 177q-10 59 -52 59q-29 0 -42.5 -26t-13.5 -96v-114h2zM44 21l24 40q-30 49 -30 136v147q0 97 41 153.5t143 56.5q79 0 124 -37l18 30q11 18 28 18q6 0 12 -5.5t6 -12.5q0 -10 -10 -27l-24 -40q30 -49 30 -136v-147q0 -97 -41 -153.5t-143 -56.5
q-81 0 -124 38l-18 -30q-13 -20 -25 -20q-8 0 -14.5 5.5t-6.5 13.5q0 11 10 27zM276 320l-106 -178q5 -33 17 -46t35 -13q31 0 43.5 25.5t12.5 98.5v113h-2z" />
    <glyph glyph-name="ugrave" unicode="&#xf9;" horiz-adv-x="463" 
d="M54 121v360q0 73 61 73t61 -73v-331q0 -57 47 -57q64 0 64 97v291q0 73 61 73t61 -73v-421q0 -73 -61 -73t-61 70h-2q-14 -34 -45.5 -52t-68.5 -18q-53 0 -85 33.5t-32 100.5zM229 605l-79 73q-25 23 -25 46q0 19 13.5 31t30.5 12q23 0 39 -16l84 -85q15 -15 15 -33
q0 -19 -11.5 -31.5t-30.5 -12.5q-18 0 -36 16z" />
    <glyph glyph-name="uacute" unicode="&#xfa;" horiz-adv-x="463" 
d="M54 121v360q0 73 61 73t61 -73v-331q0 -57 47 -57q64 0 64 97v291q0 73 61 73t61 -73v-421q0 -73 -61 -73t-61 70h-2q-14 -34 -45.5 -52t-68.5 -18q-53 0 -85 33.5t-32 100.5zM184 666l84 85q16 16 39 16q17 0 30.5 -12t13.5 -31q0 -23 -25 -46l-79 -73q-18 -16 -36 -16
q-19 0 -30.5 12.5t-11.5 31.5q0 18 15 33z" />
    <glyph glyph-name="ucircumflex" unicode="&#xfb;" horiz-adv-x="463" 
d="M54 121v360q0 73 61 73t61 -73v-331q0 -57 47 -57q64 0 64 97v291q0 73 61 73t61 -73v-421q0 -73 -61 -73t-61 70h-2q-14 -34 -45.5 -52t-68.5 -18q-53 0 -85 33.5t-32 100.5zM122 661l43 65q27 41 73 41t73 -41l43 -65q12 -17 12 -31q0 -18 -12.5 -29.5t-31.5 -11.5
q-22 0 -36 22l-48 80l-48 -80q-14 -22 -36 -22q-19 0 -31.5 11.5t-12.5 29.5q0 14 12 31z" />
    <glyph glyph-name="udieresis" unicode="&#xfc;" horiz-adv-x="463" 
d="M54 121v360q0 73 61 73t61 -73v-331q0 -57 47 -57q64 0 64 97v291q0 73 61 73t61 -73v-421q0 -73 -61 -73t-61 70h-2q-14 -34 -45.5 -52t-68.5 -18q-53 0 -85 33.5t-32 100.5zM78 666q0 28 19.5 47.5t47.5 19.5t47.5 -19.5t19.5 -47.5t-19.5 -47.5t-47.5 -19.5
t-47.5 19.5t-19.5 47.5zM264 666q0 28 19.5 47.5t47.5 19.5t47.5 -19.5t19.5 -47.5t-19.5 -47.5t-47.5 -19.5t-47.5 19.5t-19.5 47.5z" />
    <glyph glyph-name="yacute" unicode="&#xfd;" horiz-adv-x="426" 
d="M146 -44l-122 509q-5 27 -5 32q0 26 17.5 41.5t47.5 15.5q55 0 63 -47l71 -377h2l60 357q6 33 20.5 50t45.5 17q27 0 44 -14.5t17 -39.5q0 -11 -7 -39l-127 -535q-19 -81 -48 -107t-105 -26q-57 0 -57 53q0 21 10.5 32t37.5 14q14 1 20 2.5t12.5 9t6.5 22.5t-4 30z
M159 666l84 85q16 16 39 16q17 0 30.5 -12t13.5 -31q0 -23 -25 -46l-79 -73q-18 -16 -36 -16q-19 0 -30.5 12.5t-11.5 31.5q0 18 15 33z" />
    <glyph glyph-name="thorn" unicode="&#xfe;" horiz-adv-x="463" 
d="M181 322v-107q0 -132 61 -132q31 0 41 33.5t10 108.5v76q0 89 -10.5 120.5t-41.5 31.5q-60 0 -60 -131zM59 -134v794q0 73 61 73t61 -73v-179h2q15 34 45 53.5t63 19.5q40 0 66.5 -16.5t40 -48t18.5 -66t5 -80.5v-145q0 -46 -5 -80.5t-18.5 -66t-40 -48t-66.5 -16.5
q-75 0 -108 61l-2 2v-184q0 -73 -61 -73t-61 73z" />
    <glyph glyph-name="ydieresis" unicode="&#xff;" horiz-adv-x="426" 
d="M146 -44l-122 509q-5 27 -5 32q0 26 17.5 41.5t47.5 15.5q55 0 63 -47l71 -377h2l60 357q6 33 20.5 50t45.5 17q27 0 44 -14.5t17 -39.5q0 -11 -7 -39l-127 -535q-19 -81 -48 -107t-105 -26q-57 0 -57 53q0 21 10.5 32t37.5 14q14 1 20 2.5t12.5 9t6.5 22.5t-4 30z
M53 666q0 28 19.5 47.5t47.5 19.5t47.5 -19.5t19.5 -47.5t-19.5 -47.5t-47.5 -19.5t-47.5 19.5t-19.5 47.5zM239 666q0 28 19.5 47.5t47.5 19.5t47.5 -19.5t19.5 -47.5t-19.5 -47.5t-47.5 -19.5t-47.5 19.5t-19.5 47.5z" />
    <glyph glyph-name="dotlessi" unicode="&#x131;" 
d="M59 60v421q0 73 61 73t61 -73v-421q0 -73 -61 -73t-61 73z" />
    <glyph glyph-name="Lslash" unicode="&#x141;" horiz-adv-x="481" 
d="M56 72v160q-13 -9 -31 -9q-20 0 -33.5 12.5t-13.5 34.5q0 29 31 52l47 34v308q0 31 19.5 50t47.5 19t47.5 -19t19.5 -50v-210l70 51q21 16 44 16q20 0 33.5 -12.5t13.5 -34.5q0 -29 -31 -52l-130 -95v-207h201q70 0 70 -60t-70 -60h-263q-72 0 -72 72z" />
    <glyph glyph-name="lslash" unicode="&#x142;" 
d="M59 60v204q-15 -10 -32 -10q-20 0 -33 13t-13 30q0 25 26 50l52 42v271q0 73 61 73t61 -73v-175q13 10 32 10q20 0 33 -13t13 -30q0 -25 -26 -50l-52 -41v-301q0 -73 -61 -73t-61 73z" />
    <glyph glyph-name="OE" unicode="&#x152;" horiz-adv-x="796" 
d="M40 290v152q0 76 12.5 131.5t32 86.5t50 49t59 23t66.5 5q80 0 118 -39v-2h2q9 24 46 24h266q70 0 70 -60t-70 -60h-218v-166h203q70 0 70 -60t-70 -60h-203v-194h218q70 0 70 -60t-70 -60h-243q-59 0 -71 21q-37 -38 -118 -38q-41 0 -71 5.5t-59.5 24.5t-48 51.5
t-30 89.5t-11.5 136zM180 442v-152q0 -86 9.5 -130.5t25 -57.5t45.5 -13t45.5 13t25 57.5t9.5 130.5v152q0 111 -19 150t-61 39t-61 -39t-19 -150z" />
    <glyph glyph-name="oe" unicode="&#x153;" horiz-adv-x="667" 
d="M174 315v-89q0 -74 10.5 -108.5t45.5 -34.5t45 30.5t10 100.5v113q0 70 -10 100.5t-45 30.5t-45.5 -34.5t-10.5 -108.5zM407 340h106v45q0 73 -53 73t-53 -73v-45zM46 213v134q0 207 178 207q72 0 127 -42v1q52 41 114 41q93 0 131.5 -51.5t38.5 -161.5q0 -44 -13 -65.5
t-55 -21.5h-160v-55q0 -58 10.5 -87t44.5 -29q19 0 32.5 17t14.5 39q1 37 16.5 51t43.5 14q62 0 62 -60q0 -73 -45.5 -115t-120.5 -42q-83 0 -129 43q-39 -43 -115 -43q-97 0 -136 56.5t-39 169.5z" />
    <glyph glyph-name="Scaron" unicode="&#x160;" horiz-adv-x="500" 
d="M261 280l-129 91q-50 36 -70.5 78t-20.5 100q0 91 60.5 139.5t151.5 48.5q53 0 93.5 -17.5t62.5 -45.5t32.5 -58t10.5 -60q0 -33 -18 -50.5t-48 -17.5q-38 0 -50.5 16.5t-17.5 59.5q-8 67 -72 67q-31 0 -51 -18.5t-20 -50.5q0 -30 13.5 -53.5t58.5 -53.5l99 -65
q60 -39 88.5 -85t28.5 -120q0 -95 -57.5 -148.5t-170.5 -53.5q-50 0 -88 17t-58 40t-32.5 52t-16 48.5t-3.5 33.5q0 91 68 91q32 0 47.5 -20t18.5 -67q2 -40 22 -64.5t58 -24.5t58 23.5t20 60.5q0 35 -15 57.5t-53 49.5zM177 809l-43 65q-12 17 -12 31q0 18 12.5 29.5
t31.5 11.5q22 0 36 -22l48 -80l48 80q14 22 36 22q19 0 31.5 -11.5t12.5 -29.5q0 -14 -12 -31l-43 -65q-27 -41 -73 -41t-73 41z" />
    <glyph glyph-name="scaron" unicode="&#x161;" horiz-adv-x="407" 
d="M211 196l-93 69q-50 37 -66 67t-16 76q0 71 45.5 108.5t121.5 37.5q46 0 80 -14t51 -36t25 -43t8 -40q0 -60 -64 -60q-47 0 -50 47q-3 55 -53 55q-19 0 -30.5 -11.5t-11.5 -30.5q0 -32 27 -52l75 -57q64 -48 90 -81.5t26 -84.5q0 -77 -49.5 -118t-127.5 -41
q-89 0 -128.5 45.5t-39.5 103.5q0 32 16.5 46.5t41.5 14.5q33 0 47 -17.5t17 -57.5q4 -44 53 -44q48 0 48 50q0 20 -9 34.5t-34 33.5zM131 630l-43 65q-12 17 -12 31q0 18 12.5 29.5t31.5 11.5q22 0 36 -22l48 -80l48 80q14 22 36 22q19 0 31.5 -11.5t12.5 -29.5
q0 -14 -12 -31l-43 -65q-27 -41 -73 -41t-73 41z" />
    <glyph glyph-name="Ydieresis" unicode="&#x178;" horiz-adv-x="481" 
d="M174 56v240l-146 329q-12 28 -12 47q0 30 19 45.5t47 15.5q31 0 44.5 -12.5t28.5 -50.5l86 -228l91 238q12 31 28 42t41 11q27 0 45.5 -16.5t18.5 -37.5q0 -19 -10 -41l-147 -335v-247q0 -31 -19.5 -50t-47.5 -19t-47.5 19t-19.5 50zM81 845q0 28 19.5 47.5t47.5 19.5
t47.5 -19.5t19.5 -47.5t-19.5 -47.5t-47.5 -19.5t-47.5 19.5t-19.5 47.5zM267 845q0 28 19.5 47.5t47.5 19.5t47.5 -19.5t19.5 -47.5t-19.5 -47.5t-47.5 -19.5t-47.5 19.5t-19.5 47.5z" />
    <glyph glyph-name="Zcaron" unicode="&#x17d;" horiz-adv-x="519" 
d="M317 600h-207q-70 0 -70 60t70 60h308q71 0 71 -59q0 -30 -25 -71l-273 -470h235q70 0 70 -60t-70 -60h-333q-33 0 -51.5 19.5t-18.5 43.5q0 23 22 61zM187 809l-43 65q-12 17 -12 31q0 18 12.5 29.5t31.5 11.5q22 0 36 -22l48 -80l48 80q14 22 36 22q19 0 31.5 -11.5
t12.5 -29.5q0 -14 -12 -31l-43 -65q-27 -41 -73 -41t-73 41z" />
    <glyph glyph-name="zcaron" unicode="&#x17e;" horiz-adv-x="426" 
d="M89 541h245q63 0 63 -42q0 -24 -22 -63l-193 -330h157q61 0 61 -52q0 -54 -61 -54h-254q-59 0 -59 51q0 24 17 54l193 330h-147q-61 0 -61 52q0 54 61 54zM140 630l-43 65q-12 17 -12 31q0 18 12.5 29.5t31.5 11.5q22 0 36 -22l48 -80l48 80q14 22 36 22q19 0 31.5 -11.5
t12.5 -29.5q0 -14 -12 -31l-43 -65q-27 -41 -73 -41t-73 41z" />
    <glyph glyph-name="florin" unicode="&#x192;" horiz-adv-x="480" 
d="M161 300h-64q-23 0 -35 13t-12 30t12 30t35 13h72l22 194q8 71 42 105.5t105 34.5q36 0 55 -16t19 -43q0 -52 -47 -55q-26 -1 -35.5 -13.5t-13.5 -43.5l-19 -163h68q23 0 35 -13t12 -30t-12 -30t-35 -13h-76l-30 -288q-16 -161 -145 -161q-42 0 -63 17t-21 43
q0 25 12.5 38.5t47.5 15.5q22 1 31.5 20.5t14.5 67.5z" />
    <glyph glyph-name="circumflex" unicode="&#x2c6;" 
d="M4 661l43 65q27 41 73 41t73 -41l43 -65q12 -17 12 -31q0 -18 -12.5 -29.5t-31.5 -11.5q-22 0 -36 22l-48 80l-48 -80q-14 -22 -36 -22q-19 0 -31.5 11.5t-12.5 29.5q0 14 12 31z" />
    <glyph glyph-name="caron" unicode="&#x2c7;" 
d="M47 630l-43 65q-12 17 -12 31q0 18 12.5 29.5t31.5 11.5q22 0 36 -22l48 -80l48 80q14 22 36 22q19 0 31.5 -11.5t12.5 -29.5q0 -14 -12 -31l-43 -65q-27 -41 -73 -41t-73 41z" />
    <glyph glyph-name="breve" unicode="&#x2d8;" 
d="M-15 728q0 17 10.5 28t26.5 11q23 0 37 -29q12 -26 25 -36t36 -10t36 10t25 36q14 29 37 29q16 0 26.5 -11t10.5 -28q0 -34 -36 -75.5t-99 -41.5t-99 41.5t-36 75.5z" />
    <glyph glyph-name="dotaccent" unicode="&#x2d9;" 
d="M53 666q0 28 19.5 47.5t47.5 19.5t47.5 -19.5t19.5 -47.5t-19.5 -47.5t-47.5 -19.5t-47.5 19.5t-19.5 47.5z" />
    <glyph glyph-name="ring" unicode="&#x2da;" 
d="M14 695q0 44 31 75t75 31t75 -31t31 -75t-31 -75t-75 -31t-75 31t-31 75zM72 695q0 -20 14 -34t34 -14t34 14t14 34t-14 34t-34 14t-34 -14t-14 -34z" />
    <glyph glyph-name="ogonek" unicode="&#x2db;" 
d="M145 0h50q-63 -47 -63 -110q0 -46 37 -46q11 0 25.5 5.5t18.5 5.5q10 0 16 -8t6 -20q0 -18 -20 -30.5t-64 -12.5q-100 0 -100 89q0 40 26.5 74.5t67.5 52.5z" />
    <glyph glyph-name="tilde" unicode="&#x2dc;" 
d="M-45 635q0 29 32 57t66 28q29 0 69.5 -13t47.5 -13q16 0 38.5 17.5t36.5 17.5q17 0 28.5 -10t11.5 -26q0 -32 -30 -61t-67 -29q-10 0 -63.5 13t-59.5 13q-13 0 -33 -17t-34 -17q-19 0 -31 11t-12 29z" />
    <glyph glyph-name="hungarumlaut" unicode="&#x2dd;" 
d="M-32 666l84 85q16 16 39 16q17 0 30.5 -12t13.5 -31q0 -23 -25 -46l-79 -73q-18 -16 -36 -16q-19 0 -30.5 12.5t-11.5 31.5q0 18 15 33zM164 666l84 85q16 16 39 16q17 0 30.5 -12t13.5 -31q0 -23 -25 -46l-79 -73q-18 -16 -36 -16q-19 0 -30.5 12.5t-11.5 31.5
q0 18 15 33z" />
    <glyph glyph-name="endash" unicode="&#x2013;" horiz-adv-x="500" 
d="M428 226h-356q-30 0 -46 16.5t-16 40.5t16 40.5t46 16.5h356q30 0 46 -16.5t16 -40.5t-16 -40.5t-46 -16.5z" />
    <glyph glyph-name="emdash" unicode="&#x2014;" horiz-adv-x="1000" 
d="M928 226h-856q-30 0 -46 16.5t-16 40.5t16 40.5t46 16.5h856q30 0 46 -16.5t16 -40.5t-16 -40.5t-46 -16.5z" />
    <glyph glyph-name="quoteleft" unicode="&#x2018;" horiz-adv-x="222" 
d="M31 552q0 75 43.5 128t89.5 53q12 0 19.5 -7.5t7.5 -17.5q0 -19 -26 -28q-21 -7 -42.5 -28t-27.5 -45q9 1 21 1q37 0 56 -23.5t19 -49.5q0 -33 -22.5 -56t-57.5 -23q-38 0 -59 29.5t-21 66.5z" />
    <glyph glyph-name="quoteright" unicode="&#x2019;" horiz-adv-x="222" 
d="M31 654q0 33 22.5 56t57.5 23q38 0 59 -29.5t21 -66.5q0 -75 -43.5 -128t-89.5 -53q-12 0 -19.5 8t-7.5 17q0 19 26 28q21 7 42.5 28t27.5 45q-9 -1 -21 -1q-37 0 -56 23.5t-19 49.5z" />
    <glyph glyph-name="quotesinglbase" unicode="&#x201a;" horiz-adv-x="222" 
d="M31 60q0 33 22.5 56t57.5 23q38 0 59 -29.5t21 -66.5q0 -75 -43.5 -128t-89.5 -53q-12 0 -19.5 8t-7.5 17q0 19 26 28q21 7 42.5 28t27.5 45q-9 -1 -21 -1q-37 0 -56 23.5t-19 49.5z" />
    <glyph glyph-name="quotedblleft" unicode="&#x201c;" horiz-adv-x="426" 
d="M230 552q0 75 43.5 128t89.5 53q11 0 19 -7.5t8 -17.5q0 -19 -26 -28q-21 -7 -42.5 -28t-27.5 -45q9 1 21 1q37 0 56 -23.5t19 -49.5q0 -33 -22.5 -56t-57.5 -23q-38 0 -59 29.5t-21 66.5zM36 552q0 75 43.5 128t89.5 53q11 0 19 -7.5t8 -17.5q0 -19 -26 -28
q-21 -7 -42.5 -28t-27.5 -45q9 1 21 1q37 0 56 -23.5t19 -49.5q0 -33 -22.5 -56t-57.5 -23q-38 0 -59 29.5t-21 66.5z" />
    <glyph glyph-name="quotedblright" unicode="&#x201d;" horiz-adv-x="426" 
d="M36 654q0 33 22.5 56t57.5 23q38 0 59 -29.5t21 -66.5q0 -75 -43.5 -128t-89.5 -53q-11 0 -19 8t-8 17q0 19 26 28q21 7 42.5 28t27.5 45q-9 -1 -21 -1q-37 0 -56 23.5t-19 49.5zM230 654q0 33 22.5 56t57.5 23q38 0 59 -29.5t21 -66.5q0 -75 -43.5 -128t-89.5 -53
q-11 0 -19 8t-8 17q0 19 26 28q21 7 42.5 28t27.5 45q-9 -1 -21 -1q-37 0 -56 23.5t-19 49.5z" />
    <glyph glyph-name="quotedblbase" unicode="&#x201e;" horiz-adv-x="426" 
d="M36 60q0 33 22.5 56t57.5 23q38 0 59 -29.5t21 -66.5q0 -75 -43.5 -128t-89.5 -53q-11 0 -19 8t-8 17q0 19 26 28q21 7 42.5 28t27.5 45q-9 -1 -21 -1q-37 0 -56 23.5t-19 49.5zM230 60q0 33 22.5 56t57.5 23q38 0 59 -29.5t21 -66.5q0 -75 -43.5 -128t-89.5 -53
q-11 0 -19 8t-8 17q0 19 26 28q21 7 42.5 28t27.5 45q-9 -1 -21 -1q-37 0 -56 23.5t-19 49.5z" />
    <glyph glyph-name="dagger" unicode="&#x2020;" horiz-adv-x="480" 
d="M179 380h-102q-58 0 -58 53t58 53h102v174q0 73 61 73t61 -73v-174h102q58 0 58 -53t-58 -53h-102v-494q0 -73 -61 -73t-61 73v494z" />
    <glyph glyph-name="daggerdbl" unicode="&#x2021;" horiz-adv-x="480" 
d="M179 134v278h-102q-58 0 -58 53t58 53h102v142q0 73 61 73t61 -73v-142h102q58 0 58 -53t-58 -53h-102v-278h102q58 0 58 -53t-58 -53h-102v-142q0 -73 -61 -73t-61 73v142h-102q-58 0 -58 53t58 53h102z" />
    <glyph glyph-name="bullet" unicode="&#x2022;" horiz-adv-x="500" 
d="M70 360q0 74 53 127t127 53t127 -53t53 -127t-53 -127t-127 -53t-127 53t-53 127z" />
    <glyph glyph-name="ellipsis" unicode="&#x2026;" horiz-adv-x="1000" 
d="M91 63q0 31 22.5 53.5t53.5 22.5t53.5 -22.5t22.5 -53.5t-22.5 -53.5t-53.5 -22.5t-53.5 22.5t-22.5 53.5zM424 63q0 31 22 53.5t54 22.5t54 -22.5t22 -53.5t-22 -53.5t-54 -22.5t-54 22.5t-22 53.5zM757 63q0 31 22.5 53.5t53.5 22.5t53.5 -22.5t22.5 -53.5t-22.5 -53.5
t-53.5 -22.5t-53.5 22.5t-22.5 53.5z" />
    <glyph glyph-name="perthousand" unicode="&#x2030;" horiz-adv-x="1000" 
d="M458 161q0 -55 9 -76.5t39 -21.5t39 21.5t9 76.5t-9 76.5t-39 21.5t-39 -21.5t-9 -76.5zM362 168q0 84 33 125.5t111 41.5t111 -41.5t33 -125.5q0 -90 -28.5 -135.5t-115.5 -45.5t-115.5 45.5t-28.5 135.5zM792 161q0 -55 9 -76.5t39 -21.5t39 21.5t9 76.5t-9 76.5
t-39 21.5t-39 -21.5t-9 -76.5zM696 168q0 84 33 125.5t111 41.5t111 -41.5t33 -125.5q0 -90 -28.5 -135.5t-115.5 -45.5t-115.5 45.5t-28.5 135.5zM112 546q0 -55 9 -76.5t39 -21.5t39 21.5t9 76.5t-9 76.5t-39 21.5t-39 -21.5t-9 -76.5zM16 553q0 84 33 125.5t111 41.5
t111 -41.5t33 -125.5q0 -90 -28.5 -135.5t-115.5 -45.5t-115.5 45.5t-28.5 135.5zM576 684l-413 -694q-17 -28 -43 -28q-16 0 -26.5 9.5t-10.5 21.5q0 13 10 30l413 694q17 28 43 28q16 0 26.5 -9.5t10.5 -21.5q0 -13 -10 -30z" />
    <glyph glyph-name="guilsinglleft" unicode="&#x2039;" horiz-adv-x="259" 
d="M121 283l73 -64q27 -24 27 -38q0 -21 -13 -32.5t-31 -11.5q-17 0 -31 14l-72 65q-36 32 -36 67t36 67l72 65q14 14 31 14q18 0 31 -11.5t13 -32.5q0 -14 -27 -38z" />
    <glyph glyph-name="guilsinglright" unicode="&#x203a;" horiz-adv-x="259" 
d="M138 283l-73 64q-27 24 -27 38q0 21 13 32.5t31 11.5q17 0 31 -14l72 -65q36 -32 36 -67t-36 -67l-72 -65q-14 -14 -31 -14q-18 0 -31 11.5t-13 32.5q0 14 27 38z" />
    <glyph glyph-name="fraction" unicode="&#x2044;" horiz-adv-x="167" 
d="M-104 22l303 697q12 26 43 26q17 0 26 -9.5t9 -21.5q0 -16 -6 -29l-303 -697q-12 -26 -43 -26q-17 0 -26 9.5t-9 21.5q0 15 6 29z" />
    <glyph glyph-name="trademark" unicode="&#x2122;" horiz-adv-x="1000" 
d="M142 364v265h-66q-25 0 -37 14t-12 32t12 31.5t37 13.5h247q25 0 36.5 -13.5t11.5 -31.5t-11.5 -32t-36.5 -14h-67v-265q0 -35 -19.5 -50t-37.5 -15t-37.5 15t-19.5 50zM828 364v207h-2l-91 -219q-21 -53 -57 -53t-57 53l-91 219h-2v-207q0 -29 -15.5 -47t-37.5 -18
t-37.5 18t-15.5 47v272q0 49 25.5 69.5t58.5 20.5q76 0 107 -77l65 -167l65 167q31 77 107 77q33 0 58.5 -20.5t25.5 -69.5v-272q0 -29 -15.5 -47t-37.5 -18t-37.5 18t-15.5 47z" />
    <glyph glyph-name="minus" unicode="&#x2212;" horiz-adv-x="600" 
d="M87 336h426q31 0 50.5 -15.5t19.5 -37.5t-19.5 -37.5t-50.5 -15.5h-426q-31 0 -50.5 15.5t-19.5 37.5t19.5 37.5t50.5 15.5z" />
    <glyph glyph-name="fi" unicode="&#xfb01;" horiz-adv-x="500" 
d="M319 60v421q0 73 61 73t61 -73v-421q0 -73 -61 -73t-61 73zM310 667q0 29 20.5 49.5t49.5 20.5t49.5 -20.5t20.5 -49.5t-20.5 -49.5t-49.5 -20.5t-49.5 20.5t-20.5 49.5zM67 60v390h-13q-54 0 -54 45q0 46 54 46h13v72q0 67 31.5 93.5t102.5 26.5q61 0 61 -54
q0 -41 -37 -42q-22 -1 -29 -11t-7 -35v-50h19q54 0 54 -46q0 -45 -54 -45h-19v-390q0 -73 -61 -73t-61 73z" />
    <glyph glyph-name="fl" unicode="&#xfb02;" horiz-adv-x="500" 
d="M319 60v600q0 73 61 73t61 -73v-600q0 -73 -61 -73t-61 73zM67 60v390h-13q-54 0 -54 45q0 46 54 46h13v72q0 67 31.5 93.5t102.5 26.5q61 0 61 -54q0 -41 -37 -42q-22 -1 -29 -11t-7 -35v-50h19q54 0 54 -46q0 -45 -54 -45h-19v-390q0 -73 -61 -73t-61 73z" />
    </font>
</defs>
</svg>
